  0
SECTION
  2
HEADER
  9
$ACADVER
  1
AC1015
  9
$ACADMAINTVER
 70
    20
  9
$DWGCODEPAGE
  3
ANSI_936
  9
$INSBASE
 10
0.0
 20
0.0
 30
0.0
  9
$EXTMIN
 10
68.35493342581571
 20
226.9811521262521
 30
0.0
  9
$EXTMAX
 10
1154.354933425816
 20
1726.981152126252
 30
0.0
  9
$LIMMIN
 10
0.0
 20
0.0
  9
$LIMMAX
 10
12.0
 20
9.0
  9
$ORTHOMODE
 70
     0
  9
$REGENMODE
 70
     1
  9
$FILLMODE
 70
     1
  9
$QTEXTMODE
 70
     0
  9
$MIRRTEXT
 70
     0
  9
$LTSCALE
 40
1.0
  9
$ATTMODE
 70
     1
  9
$TEXTSIZE
 40
0.2
  9
$TRACEWID
 40
0.05
  9
$TEXTSTYLE
  7
Standard
  9
$CLAYER
  8
0
  9
$CELTYPE
  6
ByLayer
  9
$CECOLOR
 62
   256
  9
$CELTSCALE
 40
1.0
  9
$DISPSILH
 70
     0
  9
$DIMSCALE
 40
1.0
  9
$DIMASZ
 40
15.0
  9
$DIMEXO
 40
0.625
  9
$DIMDLI
 40
3.75
  9
$DIMRND
 40
0.0
  9
$DIMDLE
 40
0.0
  9
$DIMEXE
 40
1.25
  9
$DIMTP
 40
0.0
  9
$DIMTM
 40
0.0
  9
$DIMTXT
 40
25.0
  9
$DIMCEN
 40
12.0
  9
$DIMTSZ
 40
0.0
  9
$DIMTOL
 70
     0
  9
$DIMLIM
 70
     0
  9
$DIMTIH
 70
     0
  9
$DIMTOH
 70
     1
  9
$DIMSE1
 70
     0
  9
$DIMSE2
 70
     0
  9
$DIMTAD
 70
     1
  9
$DIMZIN
 70
     8
  9
$DIMBLK
  1

  9
$DIMASO
 70
     1
  9
$DIMSHO
 70
     1
  9
$DIMPOST
  1

  9
$DIMAPOST
  1

  9
$DIMALT
 70
     0
  9
$DIMALTD
 70
     3
  9
$DIMALTF
 40
0.03937007874016
  9
$DIMLFAC
 40
1.0
  9
$DIMTOFL
 70
     1
  9
$DIMTVP
 40
0.0
  9
$DIMTIX
 70
     0
  9
$DIMSOXD
 70
     0
  9
$DIMSAH
 70
     0
  9
$DIMBLK1
  1

  9
$DIMBLK2
  1

  9
$DIMSTYLE
  2
ISO-25
  9
$DIMCLRD
 70
   256
  9
$DIMCLRE
 70
   256
  9
$DIMCLRT
 70
     0
  9
$DIMTFAC
 40
1.0
  9
$DIMGAP
 40
0.625
  9
$DIMJUST
 70
     0
  9
$DIMSD1
 70
     0
  9
$DIMSD2
 70
     0
  9
$DIMTOLJ
 70
     0
  9
$DIMTZIN
 70
     8
  9
$DIMALTZ
 70
     0
  9
$DIMALTTZ
 70
     0
  9
$DIMUPT
 70
     0
  9
$DIMDEC
 70
     2
  9
$DIMTDEC
 70
     2
  9
$DIMALTU
 70
     2
  9
$DIMALTTD
 70
     3
  9
$DIMTXSTY
  7
Standard
  9
$DIMAUNIT
 70
     0
  9
$DIMADEC
 70
     0
  9
$DIMALTRND
 40
0.0
  9
$DIMAZIN
 70
     0
  9
$DIMDSEP
 70
    44
  9
$DIMATFIT
 70
     3
  9
$DIMFRAC
 70
     0
  9
$DIMLDRBLK
  1

  9
$DIMLUNIT
 70
     2
  9
$DIMLWD
 70
     9
  9
$DIMLWE
 70
     9
  9
$DIMTMOVE
 70
     0
  9
$LUNITS
 70
     2
  9
$LUPREC
 70
     4
  9
$SKETCHINC
 40
0.1
  9
$FILLETRAD
 40
0.0
  9
$AUNITS
 70
     0
  9
$AUPREC
 70
     0
  9
$MENU
  1
.
  9
$ELEVATION
 40
0.0
  9
$PELEVATION
 40
0.0
  9
$THICKNESS
 40
0.0
  9
$LIMCHECK
 70
     0
  9
$CHAMFERA
 40
0.0
  9
$CHAMFERB
 40
0.0
  9
$CHAMFERC
 40
0.0
  9
$CHAMFERD
 40
0.0
  9
$SKPOLY
 70
     0
  9
$TDCREATE
 40
2453580.369012581
  9
$TDUCREATE
 40
2453580.035679248
  9
$TDUPDATE
 40
2453658.430692257
  9
$TDUUPDATE
 40
2453658.097358923
  9
$TDINDWG
 40
0.0615214468
  9
$TDUSRTIMER
 40
0.0615214468
  9
$USRTIMER
 70
     1
  9
$ANGBASE
 50
0.0
  9
$ANGDIR
 70
     0
  9
$PDMODE
 70
     0
  9
$PDSIZE
 40
0.0
  9
$PLINEWID
 40
0.0
  9
$SPLFRAME
 70
     0
  9
$SPLINETYPE
 70
     6
  9
$SPLINESEGS
 70
     8
  9
$HANDSEED
  5
5FC
  9
$SURFTAB1
 70
     6
  9
$SURFTAB2
 70
     6
  9
$SURFTYPE
 70
     6
  9
$SURFU
 70
     6
  9
$SURFV
 70
     6
  9
$UCSBASE
  2

  9
$UCSNAME
  2

  9
$UCSORG
 10
0.0
 20
0.0
 30
0.0
  9
$UCSXDIR
 10
1.0
 20
0.0
 30
0.0
  9
$UCSYDIR
 10
0.0
 20
1.0
 30
0.0
  9
$UCSORTHOREF
  2

  9
$UCSORTHOVIEW
 70
     1
  9
$UCSORGTOP
 10
0.0
 20
0.0
 30
0.0
  9
$UCSORGBOTTOM
 10
0.0
 20
0.0
 30
0.0
  9
$UCSORGLEFT
 10
0.0
 20
0.0
 30
0.0
  9
$UCSORGRIGHT
 10
0.0
 20
0.0
 30
0.0
  9
$UCSORGFRONT
 10
0.0
 20
0.0
 30
0.0
  9
$UCSORGBACK
 10
0.0
 20
0.0
 30
0.0
  9
$PUCSBASE
  2

  9
$PUCSNAME
  2

  9
$PUCSORG
 10
0.0
 20
0.0
 30
0.0
  9
$PUCSXDIR
 10
1.0
 20
0.0
 30
0.0
  9
$PUCSYDIR
 10
0.0
 20
1.0
 30
0.0
  9
$PUCSORTHOREF
  2

  9
$PUCSORTHOVIEW
 70
     0
  9
$PUCSORGTOP
 10
0.0
 20
0.0
 30
0.0
  9
$PUCSORGBOTTOM
 10
0.0
 20
0.0
 30
0.0
  9
$PUCSORGLEFT
 10
0.0
 20
0.0
 30
0.0
  9
$PUCSORGRIGHT
 10
0.0
 20
0.0
 30
0.0
  9
$PUCSORGFRONT
 10
0.0
 20
0.0
 30
0.0
  9
$PUCSORGBACK
 10
0.0
 20
0.0
 30
0.0
  9
$USERI1
 70
     0
  9
$USERI2
 70
     0
  9
$USERI3
 70
     0
  9
$USERI4
 70
     0
  9
$USERI5
 70
     0
  9
$USERR1
 40
0.0
  9
$USERR2
 40
0.0
  9
$USERR3
 40
0.0
  9
$USERR4
 40
0.0
  9
$USERR5
 40
0.0
  9
$WORLDVIEW
 70
     1
  9
$SHADEDGE
 70
     3
  9
$SHADEDIF
 70
    70
  9
$TILEMODE
 70
     1
  9
$MAXACTVP
 70
    64
  9
$PINSBASE
 10
0.0
 20
0.0
 30
0.0
  9
$PLIMCHECK
 70
     0
  9
$PEXTMIN
 10
0.0
 20
0.0
 30
0.0
  9
$PEXTMAX
 10
0.0
 20
0.0
 30
0.0
  9
$PLIMMIN
 10
0.0
 20
0.0
  9
$PLIMMAX
 10
12.0
 20
9.0
  9
$UNITMODE
 70
     0
  9
$VISRETAIN
 70
     1
  9
$PLINEGEN
 70
     0
  9
$PSLTSCALE
 70
     1
  9
$TREEDEPTH
 70
  3020
  9
$CMLSTYLE
  2
Standard
  9
$CMLJUST
 70
     0
  9
$CMLSCALE
 40
1.0
  9
$PROXYGRAPHICS
 70
     1
  9
$MEASUREMENT
 70
     0
  9
$CELWEIGHT
370
    -1
  9
$ENDCAPS
280
     0
  9
$JOINSTYLE
280
     0
  9
$LWDISPLAY
290
     0
  9
$INSUNITS
 70
     1
  9
$HYPERLINKBASE
  1

  9
$STYLESHEET
  1

  9
$XEDIT
290
     1
  9
$CEPSNTYPE
380
     0
  9
$PSTYLEMODE
290
     1
  9
$FINGERPRINTGUID
  2
{FDEAD576-A652-11D2-9A35-0060089B3A3F}
  9
$VERSIONGUID
  2
{9747782A-DE9A-4B74-BC08-29892A18C69E}
  9
$EXTNAMES
290
     1
  9
$PSVPSCALE
 40
0.0
  9
$OLESTARTUP
290
     0
  0
ENDSEC
  0
SECTION
  2
CLASSES
  0
CLASS
  1
ACDBDICTIONARYWDFLT
  2
AcDbDictionaryWithDefault
  3
ObjectDBX Classes
 90
        0
280
     0
281
     0
  0
CLASS
  1
ACDBPLACEHOLDER
  2
AcDbPlaceHolder
  3
ObjectDBX Classes
 90
        0
280
     0
281
     0
  0
CLASS
  1
LAYOUT
  2
AcDbLayout
  3
ObjectDBX Classes
 90
        0
280
     0
281
     0
  0
CLASS
  1
DICTIONARYVAR
  2
AcDbDictionaryVar
  3
ObjectDBX Classes
 90
        0
280
     0
281
     0
  0
CLASS
  1
DIMASSOC
  2
AcDbDimAssoc
  3
"AcDbDimAssoc|Product Desc:     AcDim ARX App For Dimension|Company:          Autodesk, Inc.|WEB Address:      www.autodesk.com"
 90
        0
280
     0
281
     0
  0
ENDSEC
  0
SECTION
  2
TABLES
  0
TABLE
  2
VPORT
  5
8
330
0
100
AcDbSymbolTable
 70
     2
  0
VPORT
  5
5F2
330
8
100
AcDbSymbolTableRecord
100
AcDbViewportTableRecord
  2
*Active
 70
     0
 10
0.0
 20
0.0
 11
1.0
 21
1.0
 12
609.8139943473578
 22
978.7736326390927
 13
0.0
 23
0.0
 14
0.5
 24
0.5
 15
0.5
 25
0.5
 16
0.0
 26
0.0
 36
1.0
 17
0.0
 27
0.0
 37
0.0
 40
1569.098348570319
 41
1.720670391061452
 42
50.0
 43
0.0
 44
0.0
 50
0.0
 51
0.0
 71
     0
 72
  1000
 73
     1
 74
     3
 75
     0
 76
     0
 77
     0
 78
     0
281
     0
 65
     1
110
0.0
120
0.0
130
0.0
111
1.0
121
0.0
131
0.0
112
0.0
122
1.0
132
0.0
 79
     1
146
0.0
  0
ENDTAB
  0
TABLE
  2
LTYPE
  5
5
330
0
100
AcDbSymbolTable
 70
     1
  0
LTYPE
  5
14
330
5
100
AcDbSymbolTableRecord
100
AcDbLinetypeTableRecord
  2
ByBlock
 70
     0
  3

 72
    65
 73
     0
 40
0.0
  0
LTYPE
  5
15
330
5
100
AcDbSymbolTableRecord
100
AcDbLinetypeTableRecord
  2
ByLayer
 70
     0
  3

 72
    65
 73
     0
 40
0.0
  0
LTYPE
  5
16
330
5
100
AcDbSymbolTableRecord
100
AcDbLinetypeTableRecord
  2
Continuous
 70
     0
  3
Solid line
 72
    65
 73
     0
 40
0.0
  0
ENDTAB
  0
TABLE
  2
LAYER
  5
2
330
0
100
AcDbSymbolTable
 70
     3
  0
LAYER
  5
10
330
2
100
AcDbSymbolTableRecord
100
AcDbLayerTableRecord
  2
0
 70
     0
 62
     7
  6
Continuous
370
    -3
390
F
  0
LAYER
  5
167
330
2
100
AcDbSymbolTableRecord
100
AcDbLayerTableRecord
  2
Defpoints
 70
     0
 62
     7
  6
Continuous
290
     0
370
    -3
390
F
  0
LAYER
  5
168
330
2
100
AcDbSymbolTableRecord
100
AcDbLayerTableRecord
  2
Title Block
 70
     0
 62
     7
  6
Continuous
370
    -3
390
F
  0
ENDTAB
  0
TABLE
  2
STYLE
  5
3
330
0
100
AcDbSymbolTable
 70
     2
  0
STYLE
  5
11
330
3
100
AcDbSymbolTableRecord
100
AcDbTextStyleTableRecord
  2
Standard
 70
     0
 40
0.0
 41
1.0
 50
0.0
 71
     0
 42
0.2
  3
TIMES.TTF
  4

1001
ACAD
1000
Times New Roman
1071
       18
  0
STYLE
  5
169
330
3
100
AcDbSymbolTableRecord
100
AcDbTextStyleTableRecord
  2
Roman
 70
     0
 40
0.0
 41
1.0
 50
0.0
 71
     0
 42
0.065
  3
romans
  4

  0
ENDTAB
  0
TABLE
  2
VIEW
  5
6
330
0
100
AcDbSymbolTable
 70
     0
  0
ENDTAB
  0
TABLE
  2
UCS
  5
7
330
0
100
AcDbSymbolTable
 70
     0
  0
ENDTAB
  0
TABLE
  2
APPID
  5
9
330
0
100
AcDbSymbolTable
 70
     1
  0
APPID
  5
12
330
9
100
AcDbSymbolTableRecord
100
AcDbRegAppTableRecord
  2
ACAD
 70
     0
  0
ENDTAB
  0
TABLE
  2
DIMSTYLE
  5
A
330
0
100
AcDbSymbolTable
 70
     3
100
AcDbDimStyleTable
 71
     1
340
16A
  0
DIMSTYLE
105
27
330
A
100
AcDbSymbolTableRecord
100
AcDbDimStyleTableRecord
  2
Standard
 70
     0
340
11
  0
DIMSTYLE
105
16A
102
{ACAD_REACTORS
330
336
330
339
330
33A
330
33B
330
33C
330
33D
102
}
330
A
100
AcDbSymbolTableRecord
100
AcDbDimStyleTableRecord
  2
ISO-25
 70
     0
 41
15.0
 42
0.625
 43
3.75
 44
1.25
 73
     0
 77
     1
 78
     8
140
25.0
141
12.0
143
0.03937007874016
147
0.625
171
     3
172
     1
176
   256
177
   256
271
     2
272
     2
274
     3
278
    44
283
     0
284
     8
340
11
371
     9
372
     9
  0
DIMSTYLE
105
16B
330
A
100
AcDbSymbolTableRecord
100
AcDbDimStyleTableRecord
  2
1
 70
     0
 41
8.0
 42
3.0
 43
3.75
 44
1.25
 73
     0
 74
     0
 77
     1
 78
     8
140
15.0
141
2.5
143
0.03937007874016
147
0.625
171
     3
172
     1
271
     2
272
     2
274
     3
278
    44
283
     0
284
     8
340
11
  0
ENDTAB
  0
TABLE
  2
BLOCK_RECORD
  5
1
330
0
100
AcDbSymbolTable
 70
    19
  0
BLOCK_RECORD
  5
1F
330
1
100
AcDbSymbolTableRecord
100
AcDbBlockTableRecord
  2
*Model_Space
340
22
  0
BLOCK_RECORD
  5
58
330
1
100
AcDbSymbolTableRecord
100
AcDbBlockTableRecord
  2
*Paper_Space
340
59
  0
BLOCK_RECORD
  5
5D
330
1
100
AcDbSymbolTableRecord
100
AcDbBlockTableRecord
  2
*Paper_Space0
340
5E
  0
BLOCK_RECORD
  5
3F1
330
1
100
AcDbSymbolTableRecord
100
AcDbBlockTableRecord
  2
*D11
340
0
  0
BLOCK_RECORD
  5
3FD
330
1
100
AcDbSymbolTableRecord
100
AcDbBlockTableRecord
  2
*D12
340
0
  0
BLOCK_RECORD
  5
409
330
1
100
AcDbSymbolTableRecord
100
AcDbBlockTableRecord
  2
*D13
340
0
  0
BLOCK_RECORD
  5
415
330
1
100
AcDbSymbolTableRecord
100
AcDbBlockTableRecord
  2
*D14
340
0
  0
BLOCK_RECORD
  5
421
330
1
100
AcDbSymbolTableRecord
100
AcDbBlockTableRecord
  2
*D15
340
0
  0
BLOCK_RECORD
  5
49F
330
1
100
AcDbSymbolTableRecord
100
AcDbBlockTableRecord
  2
*D18
340
0
  0
ENDTAB
  0
ENDSEC
  0
SECTION
  2
BLOCKS
  0
BLOCK
  5
20
330
1F
100
AcDbEntity
  8
0
100
AcDbBlockBegin
  2
*Model_Space
 70
     0
 10
0.0
 20
0.0
 30
0.0
  3
*Model_Space
  1

  0
ENDBLK
  5
21
330
1F
100
AcDbEntity
  8
0
100
AcDbBlockEnd
  0
BLOCK
  5
5A
330
58
100
AcDbEntity
 67
     1
  8
0
100
AcDbBlockBegin
  2
*Paper_Space
 70
     0
 10
0.0
 20
0.0
 30
0.0
  3
*Paper_Space
  1

  0
ENDBLK
  5
5B
330
58
100
AcDbEntity
 67
     1
  8
0
100
AcDbBlockEnd
  0
BLOCK
  5
5F
330
5D
100
AcDbEntity
  8
0
100
AcDbBlockBegin
  2
*Paper_Space0
 70
     0
 10
0.0
 20
0.0
 30
0.0
  3
*Paper_Space0
  1

  0
ENDBLK
  5
60
330
5D
100
AcDbEntity
  8
0
100
AcDbBlockEnd
  0
BLOCK
  5
3FB
330
3F1
100
AcDbEntity
  8
0
100
AcDbBlockBegin
  2
*D11
 70
     1
 10
0.0
 20
0.0
 30
0.0
  3
*D11
  1

  0
LINE
  5
5D5
330
3F1
100
AcDbEntity
  8
0
370
     9
100
AcDbLine
 10
572.5824668320738
 20
917.3702479045498
 30
0.0
 11
572.5824668320738
 21
636.680078669654
 31
0.0
  0
LINE
  5
5D6
330
3F1
100
AcDbEntity
  8
0
370
     9
100
AcDbLine
 10
942.5824668320737
 20
917.3702479045502
 30
0.0
 11
942.5824668320737
 21
636.680078669654
 31
0.0
  0
LINE
  5
5D7
330
3F1
100
AcDbEntity
  8
0
370
     9
100
AcDbLine
 10
587.5824668320738
 20
637.9300786696539
 30
0.0
 11
927.5824668320737
 21
637.9300786696539
 31
0.0
  0
SOLID
  5
5D8
330
3F1
100
AcDbEntity
  8
0
100
AcDbTrace
 10
587.5824668320738
 20
640.430078669654
 30
0.0
 11
587.5824668320738
 21
635.430078669654
 31
0.0
 12
572.5824668320738
 22
637.9300786696539
 32
0.0
 13
572.5824668320738
 23
637.9300786696539
 33
0.0
  0
SOLID
  5
5D9
330
3F1
100
AcDbEntity
  8
0
100
AcDbTrace
 10
927.5824668320737
 20
640.430078669654
 30
0.0
 11
927.5824668320737
 21
635.430078669654
 31
0.0
 12
942.5824668320737
 22
637.9300786696539
 32
0.0
 13
942.5824668320737
 23
637.9300786696539
 33
0.0
  0
MTEXT
  5
5DA
330
3F1
100
AcDbEntity
  8
0
 62
     0
100
AcDbMText
 10
757.5824668320738
 20
655.3178760741241
 30
0.0
 40
25.0
 41
0.0
 71
     5
 72
     1
  1
370(14-1/2")
 73
     1
 44
1.0
1001
ACAD
1000
MTEXTBEGIN
1070
    73
1070
     1
1070
    44
1040
1.0
1070
    74
1070
     0
1000
MTEXTEND
  0
POINT
  5
5DB
330
3F1
100
AcDbEntity
  8
Defpoints
 62
     0
100
AcDbPoint
 10
572.5824668320738
 20
917.9952479045498
 30
0.0
  0
POINT
  5
5DC
330
3F1
100
AcDbEntity
  8
Defpoints
 62
     0
100
AcDbPoint
 10
942.5824668320737
 20
917.9952479045503
 30
0.0
  0
POINT
  5
5DD
330
3F1
100
AcDbEntity
  8
Defpoints
 62
     0
100
AcDbPoint
 10
942.5824668320737
 20
637.9300786696539
 30
0.0
  0
ENDBLK
  5
3FC
330
3F1
100
AcDbEntity
  8
0
100
AcDbBlockEnd
  0
BLOCK
  5
407
330
3FD
100
AcDbEntity
  8
0
100
AcDbBlockBegin
  2
*D12
 70
     1
 10
0.0
 20
0.0
 30
0.0
  3
*D12
  1

  0
LINE
  5
5CC
330
3FD
100
AcDbEntity
  8
0
370
     9
100
AcDbLine
 10
172.5824668320736
 20
917.3702479045497
 30
0.0
 11
172.5824668320735
 21
636.680078669654
 31
0.0
  0
LINE
  5
5CD
330
3FD
100
AcDbEntity
  8
0
370
     9
100
AcDbLine
 10
542.5824668320756
 20
917.37024790455
 30
0.0
 11
542.5824668320756
 21
636.680078669654
 31
0.0
  0
LINE
  5
5CE
330
3FD
100
AcDbEntity
  8
0
370
     9
100
AcDbLine
 10
187.5824668320735
 20
637.9300786696539
 30
0.0
 11
527.5824668320756
 21
637.9300786696539
 31
0.0
  0
SOLID
  5
5CF
330
3FD
100
AcDbEntity
  8
0
100
AcDbTrace
 10
187.5824668320735
 20
640.430078669654
 30
0.0
 11
187.5824668320735
 21
635.430078669654
 31
0.0
 12
172.5824668320735
 22
637.9300786696539
 32
0.0
 13
172.5824668320735
 23
637.9300786696539
 33
0.0
  0
SOLID
  5
5D0
330
3FD
100
AcDbEntity
  8
0
100
AcDbTrace
 10
527.5824668320756
 20
640.430078669654
 30
0.0
 11
527.5824668320756
 21
635.430078669654
 31
0.0
 12
542.5824668320756
 22
637.9300786696539
 32
0.0
 13
542.5824668320756
 23
637.9300786696539
 33
0.0
  0
MTEXT
  5
5D1
330
3FD
100
AcDbEntity
  8
0
 62
     0
100
AcDbMText
 10
357.5824668320736
 20
655.3178760741241
 30
0.0
 40
25.0
 41
0.0
 71
     5
 72
     1
  1
370(14-1/2")
 73
     1
 44
1.0
1001
ACAD
1000
MTEXTBEGIN
1070
    73
1070
     1
1070
    44
1040
1.0
1070
    74
1070
     0
1000
MTEXTEND
  0
POINT
  5
5D2
330
3FD
100
AcDbEntity
  8
Defpoints
 62
     0
100
AcDbPoint
 10
172.5824668320736
 20
917.9952479045496
 30
0.0
  0
POINT
  5
5D3
330
3FD
100
AcDbEntity
  8
Defpoints
 62
     0
100
AcDbPoint
 10
542.5824668320756
 20
917.99524790455
 30
0.0
  0
POINT
  5
5D4
330
3FD
100
AcDbEntity
  8
Defpoints
 62
     0
100
AcDbPoint
 10
542.5824668320756
 20
637.9300786696539
 30
0.0
  0
ENDBLK
  5
408
330
3FD
100
AcDbEntity
  8
0
100
AcDbBlockEnd
  0
BLOCK
  5
413
330
409
100
AcDbEntity
  8
0
100
AcDbBlockBegin
  2
*D13
 70
     1
 10
0.0
 20
0.0
 30
0.0
  3
*D13
  1

  0
LINE
  5
5C3
330
409
100
AcDbEntity
  8
0
370
     9
100
AcDbLine
 10
147.5824668320736
 20
752.3702479045505
 30
0.0
 11
147.5824668320736
 21
590.6662743003319
 31
0.0
  0
LINE
  5
5C4
330
409
100
AcDbEntity
  8
0
370
     9
100
AcDbLine
 10
967.5824668320755
 20
752.3702479045505
 30
0.0
 11
967.5824668320755
 21
590.6662743003319
 31
0.0
  0
LINE
  5
5C5
330
409
100
AcDbEntity
  8
0
370
     9
100
AcDbLine
 10
162.5824668320736
 20
591.9162743003319
 30
0.0
 11
952.5824668320757
 21
591.9162743003319
 31
0.0
  0
SOLID
  5
5C6
330
409
100
AcDbEntity
  8
0
100
AcDbTrace
 10
162.5824668320736
 20
594.4162743003318
 30
0.0
 11
162.5824668320736
 21
589.4162743003318
 31
0.0
 12
147.5824668320736
 22
591.9162743003319
 32
0.0
 13
147.5824668320736
 23
591.9162743003319
 33
0.0
  0
SOLID
  5
5C7
330
409
100
AcDbEntity
  8
0
100
AcDbTrace
 10
952.5824668320757
 20
594.4162743003318
 30
0.0
 11
952.5824668320757
 21
589.4162743003318
 31
0.0
 12
967.5824668320755
 22
591.9162743003319
 32
0.0
 13
967.5824668320755
 23
591.9162743003319
 33
0.0
  0
MTEXT
  5
5C8
330
409
100
AcDbEntity
  8
0
 62
     0
100
AcDbMText
 10
557.5824668320755
 20
609.304071704802
 30
0.0
 40
25.0
 41
0.0
 71
     5
 72
     1
  1
820(32-1/4")
 73
     1
 44
1.0
1001
ACAD
1000
MTEXTBEGIN
1070
    73
1070
     1
1070
    44
1040
1.0
1070
    74
1070
     0
1000
MTEXTEND
  0
POINT
  5
5C9
330
409
100
AcDbEntity
  8
Defpoints
 62
     0
100
AcDbPoint
 10
147.5824668320736
 20
752.9952479045505
 30
0.0
  0
POINT
  5
5CA
330
409
100
AcDbEntity
  8
Defpoints
 62
     0
100
AcDbPoint
 10
967.5824668320755
 20
752.9952479045505
 30
0.0
  0
POINT
  5
5CB
330
409
100
AcDbEntity
  8
Defpoints
 62
     0
100
AcDbPoint
 10
967.5824668320755
 20
591.9162743003319
 30
0.0
  0
ENDBLK
  5
414
330
409
100
AcDbEntity
  8
0
100
AcDbBlockEnd
  0
BLOCK
  5
41F
330
415
100
AcDbEntity
  8
0
100
AcDbBlockBegin
  2
*D14
 70
     1
 10
0.0
 20
0.0
 30
0.0
  3
*D14
  1

  0
LINE
  5
5BA
330
415
100
AcDbEntity
  8
0
370
     9
100
AcDbLine
 10
758.2074668320756
 20
1127.99524790455
 30
0.0
 11
1022.216776314282
 21
1127.99524790455
 31
0.0
  0
LINE
  5
5BB
330
415
100
AcDbEntity
  8
0
370
     9
100
AcDbLine
 10
758.2074668320756
 20
707.9952479045503
 30
0.0
 11
1022.216776314281
 21
707.9952479045502
 31
0.0
  0
LINE
  5
5BC
330
415
100
AcDbEntity
  8
0
370
     9
100
AcDbLine
 10
1020.966776314282
 20
1112.99524790455
 30
0.0
 11
1020.966776314281
 21
722.9952479045501
 31
0.0
  0
SOLID
  5
5BD
330
415
100
AcDbEntity
  8
0
100
AcDbTrace
 10
1018.466776314282
 20
1112.99524790455
 30
0.0
 11
1023.466776314282
 21
1112.99524790455
 31
0.0
 12
1020.966776314282
 22
1127.99524790455
 32
0.0
 13
1020.966776314282
 23
1127.99524790455
 33
0.0
  0
SOLID
  5
5BE
330
415
100
AcDbEntity
  8
0
100
AcDbTrace
 10
1018.466776314282
 20
722.9952479045501
 30
0.0
 11
1023.466776314281
 21
722.9952479045501
 31
0.0
 12
1020.966776314281
 22
707.9952479045502
 32
0.0
 13
1020.966776314281
 23
707.9952479045502
 33
0.0
  0
MTEXT
  5
5BF
330
415
100
AcDbEntity
  8
0
 62
     0
100
AcDbMText
 10
1003.578978909811
 20
917.99524790455
 30
0.0
 40
25.0
 41
0.0
 71
     5
 72
     1
  1
420(16-1/2")
 11
0.0000000000000001
 21
1.0
 31
0.0
 73
     1
 44
1.0
1001
ACAD
1000
MTEXTBEGIN
1070
    73
1070
     1
1070
    44
1040
1.0
1070
    74
1070
     0
1000
MTEXTEND
  0
POINT
  5
5C0
330
415
100
AcDbEntity
  8
Defpoints
 62
     0
100
AcDbPoint
 10
757.5824668320755
 20
1127.99524790455
 30
0.0
  0
POINT
  5
5C1
330
415
100
AcDbEntity
  8
Defpoints
 62
     0
100
AcDbPoint
 10
757.5824668320755
 20
707.9952479045503
 30
0.0
  0
POINT
  5
5C2
330
415
100
AcDbEntity
  8
Defpoints
 62
     0
100
AcDbPoint
 10
1020.966776314281
 20
707.9952479045502
 30
0.0
  0
ENDBLK
  5
420
330
415
100
AcDbEntity
  8
0
100
AcDbBlockEnd
  0
BLOCK
  5
42B
330
421
100
AcDbEntity
  8
0
100
AcDbBlockBegin
  2
*D15
 70
     1
 10
0.0
 20
0.0
 30
0.0
  3
*D15
  1

  0
LINE
  5
5B1
330
421
100
AcDbEntity
  8
0
370
     9
100
AcDbLine
 10
218.2074668320736
 20
1152.99524790455
 30
0.0
 11
1079.35326082248
 21
1152.99524790455
 31
0.0
  0
LINE
  5
5B2
330
421
100
AcDbEntity
  8
0
370
     9
100
AcDbLine
 10
218.2074668320736
 20
682.9952479045505
 30
0.0
 11
1079.35326082248
 21
682.9952479045503
 31
0.0
  0
LINE
  5
5B3
330
421
100
AcDbEntity
  8
0
370
     9
100
AcDbLine
 10
1078.10326082248
 20
1137.99524790455
 30
0.0
 11
1078.10326082248
 21
697.9952479045502
 31
0.0
  0
SOLID
  5
5B4
330
421
100
AcDbEntity
  8
0
100
AcDbTrace
 10
1075.603260822481
 20
1137.99524790455
 30
0.0
 11
1080.60326082248
 21
1137.99524790455
 31
0.0
 12
1078.10326082248
 22
1152.99524790455
 32
0.0
 13
1078.10326082248
 23
1152.99524790455
 33
0.0
  0
SOLID
  5
5B5
330
421
100
AcDbEntity
  8
0
100
AcDbTrace
 10
1075.603260822481
 20
697.9952479045502
 30
0.0
 11
1080.60326082248
 21
697.9952479045502
 31
0.0
 12
1078.10326082248
 22
682.9952479045503
 32
0.0
 13
1078.10326082248
 23
682.9952479045503
 33
0.0
  0
MTEXT
  5
5B6
330
421
100
AcDbEntity
  8
0
 62
     0
100
AcDbMText
 10
1060.71546341801
 20
917.9952479045505
 30
0.0
 40
25.0
 41
0.0
 71
     5
 72
     1
  1
470(18-1/2")
 11
0.0000000000000001
 21
1.0
 31
0.0
 73
     1
 44
1.0
1001
ACAD
1000
MTEXTBEGIN
1070
    73
1070
     1
1070
    44
1040
1.0
1070
    74
1070
     0
1000
MTEXTEND
  0
POINT
  5
5B7
330
421
100
AcDbEntity
  8
Defpoints
 62
     0
100
AcDbPoint
 10
217.5824668320736
 20
1152.99524790455
 30
0.0
  0
POINT
  5
5B8
330
421
100
AcDbEntity
  8
Defpoints
 62
     0
100
AcDbPoint
 10
217.5824668320736
 20
682.9952479045505
 30
0.0
  0
POINT
  5
5B9
330
421
100
AcDbEntity
  8
Defpoints
 62
     0
100
AcDbPoint
 10
1078.10326082248
 20
682.9952479045503
 30
0.0
  0
ENDBLK
  5
42C
330
421
100
AcDbEntity
  8
0
100
AcDbBlockEnd
  0
BLOCK
  5
4A9
330
49F
100
AcDbEntity
  8
0
100
AcDbBlockBegin
  2
*D18
 70
     1
 10
0.0
 20
0.0
 30
0.0
  3
*D18
  1

  0
LINE
  5
5DE
330
49F
100
AcDbEntity
  8
0
370
     9
100
AcDbLine
 10
968.2074668320757
 20
1511.395135588452
 30
0.0
 11
996.2367578675124
 21
1511.395135588452
 31
0.0
  0
LINE
  5
5DF
330
49F
100
AcDbEntity
  8
0
370
     9
100
AcDbLine
 10
899.9852372690465
 20
1302.33422802629
 30
0.0
 11
996.2367578675124
 21
1302.33422802629
 31
0.0
  0
LINE
  5
5E0
330
49F
100
AcDbEntity
  8
0
370
     9
100
AcDbLine
 10
994.9867578675123
 20
1496.395135588452
 30
0.0
 11
994.9867578675123
 21
1317.33422802629
 31
0.0
  0
SOLID
  5
5E1
330
49F
100
AcDbEntity
  8
0
100
AcDbTrace
 10
992.4867578675122
 20
1496.395135588452
 30
0.0
 11
997.4867578675123
 21
1496.395135588452
 31
0.0
 12
994.9867578675123
 22
1511.395135588452
 32
0.0
 13
994.9867578675123
 23
1511.395135588452
 33
0.0
  0
SOLID
  5
5E2
330
49F
100
AcDbEntity
  8
0
100
AcDbTrace
 10
992.4867578675122
 20
1317.33422802629
 30
0.0
 11
997.4867578675123
 21
1317.33422802629
 31
0.0
 12
994.9867578675123
 22
1302.33422802629
 32
0.0
 13
994.9867578675123
 23
1302.33422802629
 33
0.0
  0
MTEXT
  5
5E3
330
49F
100
AcDbEntity
  8
0
 62
     0
100
AcDbMText
 10
977.5989604630419
 20
1406.864681807371
 30
0.0
 40
25.0
 41
0.0
 71
     5
 72
     1
  1
228(9")
 11
0.0000000000000001
 21
1.0
 31
0.0
 73
     1
 44
1.0
1001
ACAD
1000
MTEXTBEGIN
1070
    73
1070
     1
1070
    44
1040
1.0
1070
    74
1070
     0
1000
MTEXTEND
  0
POINT
  5
5E4
330
49F
100
AcDbEntity
  8
Defpoints
 62
     0
100
AcDbPoint
 10
967.5824668320755
 20
1511.395135588452
 30
0.0
  0
POINT
  5
5E5
330
49F
100
AcDbEntity
  8
Defpoints
 62
     0
100
AcDbPoint
 10
899.3602372690466
 20
1302.33422802629
 30
0.0
  0
POINT
  5
5E6
330
49F
100
AcDbEntity
  8
Defpoints
 62
     0
100
AcDbPoint
 10
994.9867578675123
 20
1302.33422802629
 30
0.0
  0
ENDBLK
  5
4AA
330
49F
100
AcDbEntity
  8
0
100
AcDbBlockEnd
  0
ENDSEC
  0
SECTION
  2
ENTITIES
  0
REGION
  5
32B
330
1F
100
AcDbEntity
  8
0
100
AcDbModelerGeometry
 70
     1
  1
koo li n o          
  1
ni ^ *+0;:,4 ^ *+0\^ [ nh ^ LR iqoqmqhoml QK mk Y-6 P<+ nk noemoenn mooj 
  1
n fqfffffffffffffffj:rooh n:rono 
  1
=0;& {rn {n {rn {rn |
  1
3*2/ {rn {rn {m {o |
  1
,7:33 {rn {rn {rn {l {rn {n |
  1
9><: {rn {rn {k {m {rn {j 90-(>-; ;0*=3: 0*+ |
  1
300/ {rn {rn {i {l |
  1
/3>1:r,*-9><: {rn hjhqjgmkiiglmohlgn nmffqgikigngohlhnm o o o n n o o 90-(>-;@) V V V V |
  1
<0:;8: {rn {h {g {rn {f -:):-,:; {k {rn |
  1
<0:;8: {rn {no {i {rn {nn -:):-,:; {k {rn |
  1
<0:;8: {rn {i {nm {rn {nl -:):-,:; {k {rn |
  1
:;8: {rn {nk {nj {i {ni 90-(>-; |
  1
<0:;8: {rn {nh {h {rn {ng 90-(>-; {k {rn |
  1
:;8: {rn {nf {nk {h {mo 90-(>-; |
  1
<0:;8: {rn {g {nh {rn {mn 90-(>-; {k {rn |
  1
:;8: {rn {nj {mm {g {ml 90-(>-; |
  1
):-+:' {rn {f {mk |
  1
):-+:' {rn {f {mj |
  1
,+->687+r<*-): {rn hogqnhgklknikfhjkk nmfhqlfjnljjggkjmk o o n o V V |
  1
<0:;8: {rn {nm {no {rn {mi -:):-,:; {k {rn |
  1
:;8: {rn {nf {mh {no {mg 90-(>-; |
  1
):-+:' {rn {ng {mf |
  1
,+->687+r<*-): {rn hnjqlfjjlkmlihnmjf nmfhqlfjnljjggkjmk o rn o o V V |
  1
:;8: {rn {lo {mm {nm {ln 90-(>-; |
  1
):-+:' {rn {nl {lm |
  1
,+->687+r<*-): {rn hogqnhgklknikfhjkk nlomqllkmmgomimfoj o n mqlonnijnlfkkihmkj:ronj o V V |
  1
/061+ {rn hogqnhgklknikfhjkk nmfhqlfjnljjggkjmk o |
  1
/061+ {rn hogqnhgklknikfhjkk nlomqllkmmgomimfoj o |
  1
:;8: {rn {lo {mh {nh {ll 90-(>-; |
  1
):-+:' {rn {mi {lk |
  1
,+->687+r<*-): {rn hnjqlfjjlkmlihnmjf nmfhqlfjnljjggkjmk o n o o V V |
  1
/061+ {rn hnjqlfjjlkmlihnmjf nmfhqlfjnljjggkjmk o |
  1
):-+:' {rn {mn {lj |
  1
,+->687+r<*-): {rn goiqfgikffkffnhlff nmfhqlfjnljjggkjmk o o n o V V |
  1
/061+ {rn goiqfgikffkffnhlff nlomqllkmmgomimfoj o |
  1
,+->687+r<*-): {rn goiqfgikffkffnhlff nmfhqlfjnljjggkjmk o rn o o V V |
  1
/061+ {rn gooqijjkfhiihkihf nmfhqlfjnljjggkjmk o |
  1
/061+ {rn goiqfgikffkffnhlff nmfhqlfjnljjggkjmk o |
  0
REGION
  5
32C
330
1F
100
AcDbEntity
  8
0
100
AcDbModelerGeometry
 70
     1
  1
koo li n o          
  1
ni ^ *+0;:,4 ^ *+0\^ [ nh ^ LR iqoqmqhoml QK mk Y-6 P<+ nk noemoenn mooj 
  1
n fqfffffffffffffffj:rooh n:rono 
  1
=0;& {rn {n {rn {rn |
  1
3*2/ {rn {rn {m {o |
  1
,7:33 {rn {rn {rn {l {rn {n |
  1
9><: {rn {rn {k {m {rn {j 90-(>-; ;0*=3: 0*+ |
  1
300/ {rn {rn {i {l |
  1
/3>1:r,*-9><: {rn ljhqjgmkiiglmohljg nmffqgikigngohlhnm o o o n n o o 90-(>-;@) V V V V |
  1
<0:;8: {rn {h {g {rn {f -:):-,:; {k {rn |
  1
<0:;8: {rn {no {i {rn {nn 90-(>-; {k {rn |
  1
<0:;8: {rn {i {nm {rn {nl -:):-,:; {k {rn |
  1
:;8: {rn {nk {nj {i {ni 90-(>-; |
  1
<0:;8: {rn {nh {h {rn {ng 90-(>-; {k {rn |
  1
:;8: {rn {nk {nf {h {mo 90-(>-; |
  1
<0:;8: {rn {g {nh {rn {mn 90-(>-; {k {rn |
  1
:;8: {rn {nj {mm {g {ml 90-(>-; |
  1
):-+:' {rn {f {mk |
  1
):-+:' {rn {f {mj |
  1
,+->687+r<*-): {rn logqnhgklknikfhjmm nmfhqlfjnljjggkjmk o o n o V V |
  1
<0:;8: {rn {nm {no {rn {mi 90-(>-; {k {rn |
  1
:;8: {rn {nf {mh {no {mg 90-(>-; |
  1
):-+:' {rn {ng {mf |
  1
,+->687+r<*-): {rn logqnhgklknikfhjmm nmfhqlfjnljjggkjmk o n o o V V |
  1
:;8: {rn {lo {mm {nm {ln 90-(>-; |
  1
):-+:' {rn {nl {lm |
  1
,+->687+r<*-): {rn logqnhgklknikfhjmm nlomqllkmmgomimfoj o n rmqlonnijnlfkkihmkj:ronj o V V |
  1
/061+ {rn logqnhgklknikfhjmm nmfhqlfjnljjggkjmk o |
  1
/061+ {rn logqnhgklknikfhjmm nlomqllkmmgomimfoj o |
  1
:;8: {rn {mh {lo {nh {ll 90-(>-; |
  1
):-+:' {rn {mi {lk |
  1
,+->687+r<*-): {rn lnkqjofkljffiiglnm nmfhqlfjnljjggkjmk o n o o V V |
  1
/061+ {rn lnkqjofkljffiiglnm nmfhqlfjnljjggkjmk o |
  1
):-+:' {rn {mn {lj |
  1
,+->687+r<*-): {rn koiqfgikffkffnhlhi nmfhqlfjnljjggkjmk o o n o V V |
  1
/061+ {rn koiqfgikffkffnhlhi nlomqllkmmgomimfoj o |
  1
,+->687+r<*-): {rn lffqhiflffkmhkliin nmfhqlfjnljjggkjmk o n o o V V |
  1
/061+ {rn lffqhiflffkmhkliin nmfhqlfjnljjggkjmk o |
  1
/061+ {rn koiqfgikffkffnhlhi nmfhqlfjnljjggkjmk o |
  0
REGION
  5
32D
330
1F
100
AcDbEntity
  8
0
370
    40
100
AcDbModelerGeometry
 70
     1
  1
koo mi n o          
  1
ni ^ *+0;:,4 ^ *+0\^ [ nh ^ LR iqoqmqhoml QK mk Y-6 P<+ nk noemoenn mooj 
  1
n fqfffffffffffffffj:rooh n:rono 
  1
=0;& {rn {n {rn {rn |
  1
3*2/ {rn {rn {m {o |
  1
,7:33 {rn {rn {rn {l {rn {n |
  1
9><: {rn {rn {k {m {rn {j 90-(>-; ;0*=3: 0*+ |
  1
300/ {rn {rn {i {l |
  1
/3>1:r,*-9><: {rn innqljkfllkmjgnjfk fhiqfgnnjmnmimjmol o o o n n o o 90-(>-;@) V V V V |
  1
<0:;8: {rn {h {g {rn {f 90-(>-; {k {rn |
  1
<0:;8: {rn {no {i {rn {nn 90-(>-; {k {rn |
  1
<0:;8: {rn {i {no {rn {nm 90-(>-; {k {rn |
  1
:;8: {rn {nl {nk {i {nj 90-(>-; |
  1
<0:;8: {rn {g {h {rn {ni 90-(>-; {k {rn |
  1
:;8: {rn {nk {nh {h {ng 90-(>-; |
  1
:;8: {rn {nf {nl {g {mo 90-(>-; |
  1
):-+:' {rn {f {mn |
  1
):-+:' {rn {f {mm |
  1
,+->687+r<*-): {rn nnjkqljkfllkmjgnjf nhmiqfgnnjmnmimjml o rn o o V V |
  1
:;8: {rn {nh {nf {no {ml 90-(>-; |
  1
):-+:' {rn {nn {mk |
  1
,+->687+r<*-): {rn igqljkfllkmjgnjhni nhmiqfgnnjmnmimjml o o rn o V V |
  1
):-+:' {rn {ni {mj |
  1
,+->687+r<*-): {rn nnjkqljkfllkmjgnjf mmiqfgnnjmnmimjmog o o n o V V |
  1
/061+ {rn nnjkqljkfllkmjgnjf nhmiqfgnnjmnmimjml o |
  1
/061+ {rn igqljkfllkmjgnjhni nhmiqfgnnjmnmimjml o |
  1
,+->687+r<*-): {rn igqljkfllkmjgnjhni mmiqfgnnjmnmimjmog o n o o V V |
  1
/061+ {rn igqljkfllkmjgnjhni mmiqfgnnjmnmimjmog o |
  1
/061+ {rn nnjkqljkfllkmjgnjf mmiqfgnnjmnmimjmog o |
  0
REGION
  5
32F
330
1F
100
AcDbEntity
  8
0
100
AcDbModelerGeometry
 70
     1
  1
koo nn n o          
  1
ni ^ *+0;:,4 ^ *+0\^ [ nh ^ LR iqoqmqhoml QK mk Y-6 P<+ nk noemoenn mooj 
  1
n fqfffffffffffffffj:rooh n:rono 
  1
=0;& {rn {n {rn {rn |
  1
3*2/ {rn {rn {m {o |
  1
,7:33 {rn {rn {rn {l {rn {n |
  1
9><: {rn {rn {k {m {rn {j 90-(>-; ;0*=3: 0*+ |
  1
300/ {rn {rn {i {l |
  1
/3>1:r,*-9><: {rn hjhqjgmkiiglmohjim ffmqffjmkhfokjjong o o o n n o o 90-(>-;@) V V V V |
  1
<0:;8: {rn {i {i {rn {h 90-(>-; {k {rn |
  1
:;8: {rn {g {g {i {f 90-(>-; |
  1
):-+:' {rn {h {no |
  1
:336/,:r<*-): {rn hjhqjgmkiiglmohjim ffmqffjmkhfokjjong o o o n kj o o n V V |
  1
/061+ {rn gomqjgmkiiglmohjim ffmqffjmkhfokjjong o |
  0
REGION
  5
330
330
1F
100
AcDbEntity
  8
0
100
AcDbModelerGeometry
 70
     1
  1
koo nn n o          
  1
ni ^ *+0;:,4 ^ *+0\^ [ nh ^ LR iqoqmqhoml QK mk Y-6 P<+ nk noemoenn mooj 
  1
n fqfffffffffffffffj:rooh n:rono 
  1
=0;& {rn {n {rn {rn |
  1
3*2/ {rn {rn {m {o |
  1
,7:33 {rn {rn {rn {l {rn {n |
  1
9><: {rn {rn {k {m {rn {j 90-(>-; ;0*=3: 0*+ |
  1
300/ {rn {rn {i {l |
  1
/3>1:r,*-9><: {rn hjhqjgmkiiglmohjim ffmqffjmkhfokjjong o o o n n o o 90-(>-;@) V V V V |
  1
<0:;8: {rn {i {i {rn {h 90-(>-; {k {rn |
  1
:;8: {rn {g {g {i {f 90-(>-; |
  1
):-+:' {rn {h {no |
  1
:336/,:r<*-): {rn hjhqjgmkiiglmohjim ffmqffjmkhfokjjong o o o n jhqj o o n V V |
  1
/061+ {rn gnjqogmkiiglmohjim ffmqffjmkhfokjjong o |
  0
REGION
  5
331
330
1F
100
AcDbEntity
  8
0
100
AcDbModelerGeometry
 70
     1
  1
koo nn n o          
  1
ni ^ *+0;:,4 ^ *+0\^ [ nh ^ LR iqoqmqhoml QK mk Y-6 P<+ nk noemoenn mooj 
  1
n fqfffffffffffffffj:rooh n:rono 
  1
=0;& {rn {n {rn {rn |
  1
3*2/ {rn {rn {m {o |
  1
,7:33 {rn {rn {rn {l {rn {n |
  1
9><: {rn {rn {k {m {rn {j 90-(>-; ;0*=3: 0*+ |
  1
300/ {rn {rn {i {l |
  1
/3>1:r,*-9><: {rn hjhqjgmkiiglmohjim ffmqffjmkhfokjjong o o o n n o o 90-(>-;@) V V V V |
  1
<0:;8: {rn {i {i {rn {h 90-(>-; {k {rn |
  1
:;8: {rn {g {g {i {f 90-(>-; |
  1
):-+:' {rn {h {no |
  1
:336/,:r<*-): {rn hjhqjgmkiiglmohjim ffmqffjmkhfokjjong o o o n in o o n V V |
  1
/061+ {rn gngqjgmkiiglmohjim ffmqffjmkhfokjjong o |
  0
REGION
  5
332
330
1F
100
AcDbEntity
  8
0
100
AcDbModelerGeometry
 70
     1
  1
koo nn n o          
  1
ni ^ *+0;:,4 ^ *+0\^ [ nh ^ LR iqoqmqhoml QK mk Y-6 P<+ nk noemoenn mooj 
  1
n fqfffffffffffffffj:rooh n:rono 
  1
=0;& {rn {n {rn {rn |
  1
3*2/ {rn {rn {m {o |
  1
,7:33 {rn {rn {rn {l {rn {n |
  1
9><: {rn {rn {k {m {rn {j 90-(>-; ;0*=3: 0*+ |
  1
300/ {rn {rn {i {l |
  1
/3>1:r,*-9><: {rn ljhqjgmkiiglmohjk ffmqffjmkhfokjjooh o o o n n o o 90-(>-;@) V V V V |
  1
<0:;8: {rn {i {i {rn {h 90-(>-; {k {rn |
  1
:;8: {rn {g {g {i {f 90-(>-; |
  1
):-+:' {rn {h {no |
  1
:336/,:r<*-): {rn ljhqjgmkiiglmohjk ffmqffjmkhfokjjooh o o o n in o o n V V |
  1
/061+ {rn kngqjgmkiiglmohjk ffmqffjmkhfokjjooh o |
  0
REGION
  5
333
330
1F
100
AcDbEntity
  8
0
100
AcDbModelerGeometry
 70
     1
  1
koo nn n o          
  1
ni ^ *+0;:,4 ^ *+0\^ [ nh ^ LR iqoqmqhoml QK mk Y-6 P<+ nk noemoenn mooj 
  1
n fqfffffffffffffffj:rooh n:rono 
  1
=0;& {rn {n {rn {rn |
  1
3*2/ {rn {rn {m {o |
  1
,7:33 {rn {rn {rn {l {rn {n |
  1
9><: {rn {rn {k {m {rn {j 90-(>-; ;0*=3: 0*+ |
  1
300/ {rn {rn {i {l |
  1
/3>1:r,*-9><: {rn ljhqjgmkiiglmohjk ffmqffjmkhfokjjooh o o o n n o o 90-(>-;@) V V V V |
  1
<0:;8: {rn {i {i {rn {h 90-(>-; {k {rn |
  1
:;8: {rn {g {g {i {f 90-(>-; |
  1
):-+:' {rn {h {no |
  1
:336/,:r<*-): {rn ljhqjgmkiiglmohjk ffmqffjmkhfokjjooh o o o n jhqj o o n V V |
  1
/061+ {rn knjqogmkiiglmohjk ffmqffjmkhfokjjooh o |
  0
REGION
  5
334
330
1F
100
AcDbEntity
  8
0
100
AcDbModelerGeometry
 70
     1
  1
koo nn n o          
  1
ni ^ *+0;:,4 ^ *+0\^ [ nh ^ LR iqoqmqhoml QK mk Y-6 P<+ nk noemoenn mooj 
  1
n fqfffffffffffffffj:rooh n:rono 
  1
=0;& {rn {n {rn {rn |
  1
3*2/ {rn {rn {m {o |
  1
,7:33 {rn {rn {rn {l {rn {n |
  1
9><: {rn {rn {k {m {rn {j 90-(>-; ;0*=3: 0*+ |
  1
300/ {rn {rn {i {l |
  1
/3>1:r,*-9><: {rn ljhqjgmkiiglmohjk ffmqffjmkhfokjjooh o o o n n o o 90-(>-;@) V V V V |
  1
<0:;8: {rn {i {i {rn {h 90-(>-; {k {rn |
  1
:;8: {rn {g {g {i {f 90-(>-; |
  1
):-+:' {rn {h {no |
  1
:336/,:r<*-): {rn ljhqjgmkiiglmohjk ffmqffjmkhfokjjooh o o o n kj o o n V V |
  1
/061+ {rn komqjgmkiiglmohjk ffmqffjmkhfokjjooh o |
  0
REGION
  5
335
330
1F
100
AcDbEntity
  8
0
370
    53
100
AcDbModelerGeometry
 70
     1
  1
koo ki n o          
  1
ni ^ *+0;:,4 ^ *+0\^ [ nh ^ LR iqoqmqhoml QK mk Y-6 P<+ nk noemoenn mooj 
  1
n fqfffffffffffffffj:rooh n:rono 
  1
=0;& {rn {n {rn {rn |
  1
3*2/ {rn {rn {m {o |
  1
,7:33 {rn {rn {rn {l {rn {n |
  1
9><: {rn {rn {k {m {rn {j 90-(>-; ;0*=3: 0*+ |
  1
300/ {rn {rn {i {l |
  1
/3>1:r,*-9><: {rn jjhqjgmkiiglmohhkk fnhqffjmkhfokjjokn o o o n n o o 90-(>-;@) V V V V |
  1
<0:;8: {rn {h {g {rn {f 90-(>-; {k {rn |
  1
<0:;8: {rn {no {i {rn {nn 90-(>-; {k {rn |
  1
<0:;8: {rn {i {nm {rn {nl 90-(>-; {k {rn |
  1
:;8: {rn {nk {nj {i {ni 90-(>-; |
  1
<0:;8: {rn {nh {h {rn {ng 90-(>-; {k {rn |
  1
:;8: {rn {nj {nf {h {mo 90-(>-; |
  1
<0:;8: {rn {g {mn {rn {mm 90-(>-; {k {rn |
  1
:;8: {rn {ml {nk {g {mk 90-(>-; |
  1
):-+:' {rn {f {mj |
  1
):-+:' {rn {f {mi |
  1
,+->687+r<*-): {rn nkhqjgmkiiglmohljg nogmqffjmkhfokjjol o o rn o V V |
  1
<0:;8: {rn {mh {no {rn {mg -:):-,:; {k {rn |
  1
:;8: {rn {nf {mf {no {lo 90-(>-; |
  1
):-+:' {rn {nn {ln |
  1
,+->687+r<*-): {rn nkhqjgmkiiglmohljg hjmqffjmkhfokjjojm o oqhohnoihgnngijkhki roqhohnoihgnngijkhki o V V |
  1
<0:;8: {rn {nm {mh {rn {lm -:):-,:; {k {rn |
  1
:;8: {rn {ll {ml {nm {lk 90-(>-; |
  1
):-+:' {rn {mm {lj |
  1
,+->687+r<*-): {rn mnhqjgmkiiglmohljg nnjmqffjmkhfokjjol o roqhohnoihgnngijkhki roqhohnoihgnngijkhki o V V |
  1
/061+ {rn nkhqjgmkiiglmohljg nogmqffjmkhfokjjol o |
  1
/061+ {rn nkhqjgmkiiglmohljg hjmqffjmkhfokjjojm o |
  1
<0:;8: {rn {mn {nh {rn {li 90-(>-; {k {rn |
  1
:;8: {rn {lh {mf {nh {lg 90-(>-; |
  1
):-+:' {rn {ng {lf |
  1
,+->687+r<*-): {rn mnhqjgmkiiglmohljg igmqffjmkhfokjjojm o n o o V V |
  1
/061+ {rn mnhqjgmkiiglmohljg igmqffjmkhfokjjojm o |
  1
:;8: {rn {ll {ko {mn {kn 90-(>-; |
  1
):-+:' {rn {lm {km |
  1
,+->687+r<*-): {rn gfhqjgmkiiglmohjim nnjmqffjmkhfokjjon o rn nqihngijmioinnffi:roni o V V |
  1
/061+ {rn mnhqjgmkiiglmohljg nnjmqffjmkhfokjjol o |
  1
:;8: {rn {lh {ko {mh {kl 90-(>-; |
  1
):-+:' {rn {mg {kk |
  1
,+->687+r<*-): {rn fihqjgmkiiglmohjim hjmqffjmkhfokjjojm o roqhohnoihgnngijkhki roqhohnoihgnngijkhki o V V |
  1
/061+ {rn gfhqjgmkiiglmohjim igmqffjmkhfokjjojm o |
  1
):-+:' {rn {li {kj |
  1
,+->687+r<*-): {rn gfhqjgmkiiglmohjim nnjmqffjmkhfokjjon o oqhohnoihgnngijkhki roqhohnoihgnngijkhki o V V |
  1
/061+ {rn gfhqjgmkiiglmohjim nnjmqffjmkhfokjjon o |
  1
,+->687+r<*-): {rn fihqjgmkiiglmohjim hjmqffjmkhfokjjojm o o n o V V |
  1
/061+ {rn fihqjgmkiiglmohjim hjmqffjmkhfokjjojm o |
  1
/061+ {rn fihqjgmkiiglmohjim nogmqffjmkhfokjjon o |
  0
DIMENSION
  5
336
102
{ACAD_XDICTIONARY
360
337
102
}
102
{ACAD_REACTORS
330
338
102
}
330
1F
100
AcDbEntity
  8
0
100
AcDbDimension
  2
*D18
 10
994.9867578675123
 20
1302.33422802629
 30
0.0
 11
994.9867578675121
 21
1406.864681807371
 31
0.0
 70
   160
  1
228(9")
 71
     5
 42
209.0609075621619
  3
ISO-25
100
AcDbAlignedDimension
 13
967.5824668320755
 23
1511.395135588452
 33
0.0
 14
899.3602372690466
 24
1302.33422802629
 34
0.0
 50
90.0
100
AcDbRotatedDimension
  0
DIMENSION
  5
339
330
1F
100
AcDbEntity
  8
0
100
AcDbDimension
  2
*D11
 10
942.5824668320737
 20
637.9300786696539
 30
0.0
 11
757.5824668320738
 21
637.9300786696539
 31
0.0
 70
   160
  1
370(14-1/2")
 71
     5
 42
370.0
  3
ISO-25
100
AcDbAlignedDimension
 13
572.5824668320738
 23
917.9952479045498
 33
0.0
 14
942.5824668320737
 24
917.9952479045503
 34
0.0
100
AcDbRotatedDimension
  0
DIMENSION
  5
33A
330
1F
100
AcDbEntity
  8
0
100
AcDbDimension
  2
*D12
 10
542.5824668320756
 20
637.9300786696539
 30
0.0
 11
357.5824668320736
 21
637.9300786696539
 31
0.0
 70
   160
  1
370(14-1/2")
 71
     5
 42
370.0000000000021
  3
ISO-25
100
AcDbAlignedDimension
 13
172.5824668320736
 23
917.9952479045496
 33
0.0
 14
542.5824668320756
 24
917.99524790455
 34
0.0
100
AcDbRotatedDimension
  0
DIMENSION
  5
33B
330
1F
100
AcDbEntity
  8
0
100
AcDbDimension
  2
*D13
 10
967.5824668320755
 20
591.9162743003319
 30
0.0
 11
557.5824668320755
 21
591.9162743003319
 31
0.0
 70
   160
  1
820(32-1/4")
 71
     5
 42
820.000000000002
  3
ISO-25
100
AcDbAlignedDimension
 13
147.5824668320736
 23
752.9952479045505
 33
0.0
 14
967.5824668320755
 24
752.9952479045505
 34
0.0
100
AcDbRotatedDimension
  0
DIMENSION
  5
33C
330
1F
100
AcDbEntity
  8
0
100
AcDbDimension
  2
*D14
 10
1020.966776314281
 20
707.9952479045502
 30
0.0
 11
1020.966776314281
 21
917.99524790455
 31
0.0
 70
   160
  1
420(16-1/2")
 71
     5
 42
420.0000000000001
  3
ISO-25
100
AcDbAlignedDimension
 13
757.5824668320755
 23
1127.99524790455
 33
0.0
 14
757.5824668320755
 24
707.9952479045503
 34
0.0
 50
90.0
100
AcDbRotatedDimension
  0
DIMENSION
  5
33D
330
1F
100
AcDbEntity
  8
0
100
AcDbDimension
  2
*D15
 10
1078.10326082248
 20
682.9952479045503
 30
0.0
 11
1078.10326082248
 21
917.9952479045505
 31
0.0
 70
   160
  1
470(18-1/2")
 71
     5
 42
469.9999999999997
  3
ISO-25
100
AcDbAlignedDimension
 13
217.5824668320736
 23
1152.99524790455
 33
0.0
 14
217.5824668320736
 24
682.9952479045505
 34
0.0
 50
90.0
100
AcDbRotatedDimension
  0
REGION
  5
33E
330
1F
100
AcDbEntity
  8
0
370
    40
100
AcDbModelerGeometry
 70
     1
  1
koo ki n o          
  1
ni ^ *+0;:,4 ^ *+0\^ [ nh ^ LR iqoqmqhoml QK mk Y-6 P<+ nk noemoenn mooj 
  1
n fqfffffffffffffffj:rooh n:rono 
  1
=0;& {rn {n {rn {rn |
  1
3*2/ {rn {rn {m {o |
  1
,7:33 {rn {rn {rn {l {rn {n |
  1
9><: {rn {rn {k {m {rn {j 90-(>-; ;0*=3: 0*+ |
  1
300/ {rn {rn {i {l |
  1
/3>1:r,*-9><: {rn ljhqjgmkiiglmohjk fnhqffjmkhfokjjooh o o o n rnqglifofjlohlljijf:roni rn o 90-(>-;@) V V V V |
  1
<0:;8: {rn {h {g {rn {f 90-(>-; {k {rn |
  1
<0:;8: {rn {no {i {rn {nn 90-(>-; {k {rn |
  1
<0:;8: {rn {i {nm {rn {nl 90-(>-; {k {rn |
  1
:;8: {rn {nk {nj {i {ni 90-(>-; |
  1
<0:;8: {rn {nh {h {rn {ng 90-(>-; {k {rn |
  1
:;8: {rn {nj {nf {h {mo 90-(>-; |
  1
<0:;8: {rn {g {mn {rn {mm 90-(>-; {k {rn |
  1
:;8: {rn {ml {nk {g {mk 90-(>-; |
  1
):-+:' {rn {f {mj |
  1
):-+:' {rn {f {mi |
  1
:336/,:r<*-): {rn rfjhqknhjllnihfmkkf fnhqffjmkhfokjjooh o o o n rmqhjjlikmfinoolkgg:ronl rnjoo o n V V |
  1
<0:;8: {rn {mh {no {rn {mg 90-(>-; {k {rn |
  1
:;8: {rn {nf {mf {no {lo 90-(>-; |
  1
):-+:' {rn {nn {ln |
  1
:336/,:r<*-): {rn kkhqhhjkgjhjjknfgm nolkqlmkgilfkfnfjl o o o n rnqijlmngjhhiiomofl:ronk rfo o n V V |
  1
<0:;8: {rn {nm {mh {rn {lm 90-(>-; {k {rn |
  1
:;8: {rn {ll {ml {nm {lk 90-(>-; |
  1
):-+:' {rn {mm {lj |
  1
:336/,:r<*-): {rn kkhqhhjkgjhjjknfgm gonqiijilngjffokgn o o o n rnqijlmngjhhiiomofl:ronk rfo o n V V |
  1
/061+ {rn jlhqkigijhnhioioll hfkqmkollhmnghjhl o |
  1
/061+ {rn jlhqkigijhnhioioll noknqhjonjgjfolkmg o |
  1
<0:;8: {rn {mn {nh {rn {li 90-(>-; {k {rn |
  1
:;8: {rn {mf {lh {nh {lg 90-(>-; |
  1
):-+:' {rn {ng {lf |
  1
:336/,:r<*-): {rn ljhqjgmkiiglmohjk rhmqookhjmofjkkfghk o o o n rmqmokmfnkliggomhfn:ronl rnmoo o n V V |
  1
/061+ {rn kjjqoggkllmljifnjg nnmkqomhmijmjonnmi o |
  1
:;8: {rn {ko {ll {mn {kn 90-(>-; |
  1
):-+:' {rn {lm {km |
  1
:336/,:r<*-): {rn ljhqjgmkiiglmohjk nfohqffjmkhfokjjon o o o n rmqmokmfnkliggomhfn:ronl rnmoo o n V V |
  1
/061+ {rn kjjqoggkllmljifnjg hnnqfilmlojjgfghnn o |
  1
:;8: {rn {lh {ko {mh {kl 90-(>-; |
  1
):-+:' {rn {mg {kk |
  1
:336/,:r<*-): {rn mihqlgfkkhfoghmfnj nolkqlmkgilfkfnfjl o o o n rnqijlmngjhhiiomofl:ronk rfo o n V V |
  1
/061+ {rn mioqohijookmgkjfmn nnmkqomhmijmjonnl o |
  1
):-+:' {rn {li {kj |
  1
:336/,:r<*-): {rn mihqlgfkkhfoghmfnj gonqiijilngjffokgn o o o n rnqijlmngjhhiiomofl:ronk rfo o n V V |
  1
/061+ {rn mioqohijookmgkjfmn hnnqfilmlojjgfghji o |
  1
:336/,:r<*-): {rn nihmqjgmkiiglmohlg fnhqffjmkhfokjkfin o o o n rmqhjjlikmfinoolkgg:ronl rnjoo o n V V |
  1
/061+ {rn nhhqifimhikggofoif noknqhjonjgjfolkmg o |
  1
/061+ {rn nhhqifimhikggofoif hfkqmkollhmnghjhhi o |
  0
REGION
  5
33F
330
1F
100
AcDbEntity
  8
0
370
    40
100
AcDbModelerGeometry
 70
     1
  1
koo ki n o          
  1
ni ^ *+0;:,4 ^ *+0\^ [ nh ^ LR iqoqmqhoml QK mk Y-6 P<+ nk noemoenn mooj 
  1
n fqfffffffffffffffj:rooh n:rono 
  1
=0;& {rn {n {rn {rn |
  1
3*2/ {rn {rn {m {o |
  1
,7:33 {rn {rn {rn {l {rn {n |
  1
9><: {rn {rn {k {m {rn {j 90-(>-; ;0*=3: 0*+ |
  1
300/ {rn {rn {i {l |
  1
/3>1:r,*-9><: {rn hjhqjgmkiiglmohjim fnhqffjmkhfokjjol o o o n rnqglifofjlohlljijf:roni rn o 90-(>-;@) V V V V |
  1
<0:;8: {rn {h {g {rn {f 90-(>-; {k {rn |
  1
<0:;8: {rn {no {i {rn {nn 90-(>-; {k {rn |
  1
<0:;8: {rn {i {nm {rn {nl 90-(>-; {k {rn |
  1
:;8: {rn {nk {nj {i {ni 90-(>-; |
  1
<0:;8: {rn {nh {h {rn {ng 90-(>-; {k {rn |
  1
:;8: {rn {nj {nf {h {mo 90-(>-; |
  1
<0:;8: {rn {g {mn {rn {mm 90-(>-; {k {rn |
  1
:;8: {rn {ml {nk {g {mk 90-(>-; |
  1
):-+:' {rn {f {mj |
  1
):-+:' {rn {f {mi |
  1
:336/,:r<*-): {rn rjjhqknhjllnihfmiln fnhqffjmkhfokjjol o o o n rmqhjjlikmfinoolkgg:ronl rnjoo o n V V |
  1
<0:;8: {rn {mh {no {rn {mg 90-(>-; {k {rn |
  1
:;8: {rn {nf {mf {no {lo 90-(>-; |
  1
):-+:' {rn {nn {ln |
  1
:336/,:r<*-): {rn gkhqhhjkgjhjjkmooj nolkqlmkgilfkfnfji o o o n rnqijlmngjhhiiomofl:ronk rfo o n V V |
  1
<0:;8: {rn {nm {mh {rn {lm 90-(>-; {k {rn |
  1
:;8: {rn {ll {ml {nm {lk 90-(>-; |
  1
):-+:' {rn {mm {lj |
  1
:336/,:r<*-): {rn gkhqhhjkgjhjjkmooj gonqiijilngjffojol o o o n rnqijlmngjhhiiomofl:ronk rfo o n V V |
  1
/061+ {rn flhqkigijhnhiojgjn hfkqmkollhmnghjhjl o |
  1
/061+ {rn flhqkigijhnhiojgjn noknqhjonjgjfolkln o |
  1
<0:;8: {rn {mn {nh {rn {li 90-(>-; {k {rn |
  1
:;8: {rn {mf {lh {nh {lg 90-(>-; |
  1
):-+:' {rn {ng {lf |
  1
:336/,:r<*-): {rn hjhqjgmkiiglmohlgn rhmqookhjmofjkkfiki o o o n rmqmokmfnkliggomhfn:ronl rnmoo o n V V |
  1
/061+ {rn gjjqoggkllmljifngn nnmkqomhmijmjonnmg o |
  1
:;8: {rn {ko {ll {mn {kn 90-(>-; |
  1
):-+:' {rn {lm {km |
  1
:336/,:r<*-): {rn hjhqjgmkiiglmohjim nfohqffjmkhfokjjoj o o o n rmqmokmfnkliggomhfn:ronl rnmoo o n V V |
  1
/061+ {rn gjjqoggkllmljifngn hnnqfilmlojjgfghll o |
  1
:;8: {rn {lh {ko {mh {kl 90-(>-; |
  1
):-+:' {rn {mg {kk |
  1
:336/,:r<*-): {rn iihqlgfkkhfoghmflg nolkqlmkgilfkfnfji o o o n rnqijlmngjhhiiomofl:ronk rfo o n V V |
  1
/061+ {rn iioqohijookmgkjfkk nnmkqomhmijmjonnll o |
  1
):-+:' {rn {li {kj |
  1
:336/,:r<*-): {rn iihqlgfkkhfoghmflg gonqiijilngjffojol o o o n rnqijlmngjhhiiomofl:ronk rfo o n V V |
  1
/061+ {rn iioqohijookmgkjfkk hnnqfilmlojjgfghhf o |
  1
:336/,:r<*-): {rn mohmqjgmkiiglmohlg fnhqffjmkhfokjkfgk o o o n rmqhjjlikmfinoolkgg:ronl rnjoo o n V V |
  1
/061+ {rn jhhqifimhikggofofm noknqhjonjgjfolkln o |
  1
/061+ {rn jhhqifimhikggofofm hfkqmkollhmnghjhff o |
  0
LINE
  5
340
330
1F
100
AcDbEntity
  8
0
370
   100
100
AcDbLine
 10
147.5824668320736
 20
1511.395135588452
 30
0.0
 11
167.5824668320754
 21
1511.395135588452
 31
0.0
  0
LINE
  5
341
330
1F
100
AcDbEntity
  8
0
370
   100
100
AcDbLine
 10
172.5824668320754
 20
1506.395135588452
 30
0.0
 11
172.5824668320754
 21
1345.319898988351
 31
0.0
  0
LINE
  5
342
330
1F
100
AcDbEntity
  8
0
370
   100
100
AcDbLine
 10
542.5824668320756
 20
1345.319898988351
 30
0.0
 11
542.5824668320756
 21
1506.395135588452
 31
0.0
  0
LINE
  5
343
330
1F
100
AcDbEntity
  8
0
370
   100
100
AcDbLine
 10
547.5824668320756
 20
1511.395135588452
 30
0.0
 11
567.5824668320737
 21
1511.395135588452
 31
0.0
  0
LINE
  5
344
330
1F
100
AcDbEntity
  8
0
370
   100
100
AcDbLine
 10
572.5824668320738
 20
1506.395135588452
 30
0.0
 11
572.5824668320738
 21
1345.319898988351
 31
0.0
  0
LINE
  5
345
330
1F
100
AcDbEntity
  8
0
370
   100
100
AcDbLine
 10
942.5824668320755
 20
1345.319898988351
 30
0.0
 11
942.5824668320755
 21
1506.395135588452
 31
0.0
  0
LINE
  5
346
102
{ACAD_REACTORS
330
338
102
}
330
1F
100
AcDbEntity
  8
0
370
   100
100
AcDbLine
 10
947.5824668320756
 20
1511.395135588452
 30
0.0
 11
967.5824668320755
 21
1511.395135588452
 31
0.0
  0
ARC
  5
347
330
1F
100
AcDbEntity
  8
0
370
   100
100
AcDbCircle
 10
357.5824668320754
 20
2601.395135588453
 30
0.0
 40
1300.0
100
AcDbArc
 50
263.1900113430652
 51
267.8220581857443
  0
ARC
  5
348
330
1F
100
AcDbEntity
  8
0
370
   100
100
AcDbCircle
 10
757.5824668320738
 20
2601.395135588453
 30
0.0
 40
1300.0
100
AcDbArc
 50
263.1900113430652
 51
267.8220581857443
  0
ARC
  5
349
330
1F
100
AcDbEntity
  8
0
370
   100
100
AcDbCircle
 10
207.5824668320754
 20
1345.319898988351
 30
0.0
 40
35.0
100
AcDbArc
 50
180.0
 51
263.1900113430652
  0
ARC
  5
34A
330
1F
100
AcDbEntity
  8
0
370
   100
100
AcDbCircle
 10
507.5824668320755
 20
1345.319898988351
 30
0.0
 40
35.0
100
AcDbArc
 50
276.8099886569349
 51
0.0
  0
ARC
  5
34B
330
1F
100
AcDbEntity
  8
0
370
   100
100
AcDbCircle
 10
607.5824668320738
 20
1345.319898988351
 30
0.0
 40
35.0
100
AcDbArc
 50
180.0
 51
263.1900113430652
  0
ARC
  5
34C
330
1F
100
AcDbEntity
  8
0
370
   100
100
AcDbCircle
 10
907.5824668320755
 20
1345.319898988351
 30
0.0
 40
35.0
100
AcDbArc
 50
276.8099886569349
 51
0.0
  0
ARC
  5
34D
330
1F
100
AcDbEntity
  8
0
370
   100
100
AcDbCircle
 10
167.5824668320754
 20
1506.395135588452
 30
0.0
 40
5.0
100
AcDbArc
 50
0.0
 51
90.0
  0
ARC
  5
34E
330
1F
100
AcDbEntity
  8
0
370
   100
100
AcDbCircle
 10
547.5824668320756
 20
1506.395135588452
 30
0.0
 40
5.0
100
AcDbArc
 50
90.0
 51
180.0
  0
ARC
  5
34F
330
1F
100
AcDbEntity
  8
0
370
   100
100
AcDbCircle
 10
567.5824668320737
 20
1506.395135588452
 30
0.0
 40
5.0
100
AcDbArc
 50
0.0
 51
90.0
  0
ARC
  5
350
330
1F
100
AcDbEntity
  8
0
370
   100
100
AcDbCircle
 10
947.5824668320756
 20
1506.395135588452
 30
0.0
 40
5.0
100
AcDbArc
 50
90.0
 51
180.0
  0
ARC
  5
351
330
1F
100
AcDbEntity
  8
0
370
   100
100
AcDbCircle
 10
357.5824668320754
 20
2601.395135588453
 30
0.0
 40
1300.0
100
AcDbArc
 50
272.1779418142558
 51
276.8099886569349
  0
ARC
  5
352
330
1F
100
AcDbEntity
  8
0
370
   100
100
AcDbCircle
 10
757.5824668320738
 20
2601.395135588453
 30
0.0
 40
1300.0
100
AcDbArc
 50
272.1779418142558
 51
276.8099886569349
  0
LINE
  5
353
330
1F
100
AcDbEntity
  8
0
100
AcDbLine
 10
167.5824668320754
 20
1511.395135588452
 30
0.0
 11
957.5824668320755
 21
1511.395135588452
 31
0.0
  0
MTEXT
  5
354
330
1F
100
AcDbEntity
  8
0
100
AcDbMText
 10
624.4996972824619
 20
385.6383836490016
 30
0.0
 40
20.0
 41
468.75
 71
     1
 72
     5
  1
{\fSimSun|b0|i0|c134|p18;1.2}mm{\fSimSun|b0|i0|c134|p18; }SUS{\fSimSun|b0|i0|c134|p18;304 }STAINLESS{\fSimSun|b0|i0|c134|p18; }STEEl
 73
     1
 44
1.0
1001
ACAD
1000
MTEXTBEGIN
1070
    73
1070
     1
1070
    44
1040
1.0
1070
    74
1070
     0
1000
MTEXTEND
  0
MTEXT
  5
355
330
1F
100
AcDbEntity
  8
0
100
AcDbMText
 10
687.5168996817182
 20
345.9022667809689
 30
0.0
 40
45.0
 41
318.75
 71
     1
 72
     5
  1
{\fSimSun|b0|i0|c134|p18;8 0 2}
 73
     1
 44
1.0
1001
ACAD
1000
MTEXTBEGIN
1070
    73
1070
     1
1070
    44
1040
1.0
1070
    74
1070
     0
1000
MTEXTEND
  0
MTEXT
  5
356
330
1F
100
AcDbEntity
  8
0
100
AcDbMText
 10
1000.279523857421
 20
253.8503164289098
 30
0.0
 40
15.0
 41
187.1342842590093
 71
     1
 72
     5
  1
   {\fSimSun|b0|i0|c134|p54;年   月   日}
 73
     1
 44
1.0
1001
ACAD
1000
MTEXTBEGIN
1070
    73
1070
     1
1070
    44
1040
1.0
1070
    74
1070
     0
1000
MTEXTEND
  0
MTEXT
  5
357
330
1F
100
AcDbEntity
  8
0
100
AcDbMText
 10
1000.279523857421
 20
286.8789283779072
 30
0.0
 40
15.0
 41
187.1342842590093
 71
     1
 72
     5
  1
   {\fSimSun|b0|i0|c134|p54;年   月   日}
 73
     1
 44
1.0
1001
ACAD
1000
MTEXTBEGIN
1070
    73
1070
     1
1070
    44
1040
1.0
1070
    74
1070
     0
1000
MTEXTEND
  0
MTEXT
  5
358
330
1F
100
AcDbEntity
  8
0
100
AcDbMText
 10
875.1954621184731
 20
256.3145251788004
 30
0.0
 40
20.0
 41
144.5691098365569
 71
     1
 72
     5
  1
{\fSimSun|b0|i0|c134|p54;日 期}
 73
     1
 44
1.0
1001
ACAD
1000
MTEXTBEGIN
1070
    73
1070
     1
1070
    44
1040
1.0
1070
    74
1070
     0
1000
MTEXTEND
  0
MTEXT
  5
359
330
1F
100
AcDbEntity
  8
0
100
AcDbMText
 10
875.1954621184731
 20
289.7479380020552
 30
0.0
 40
20.0
 41
144.5691098365569
 71
     1
 72
     5
  1
{\fSimSun|b0|i0|c134|p54;日 期}
 73
     1
 44
1.0
1001
ACAD
1000
MTEXTBEGIN
1070
    73
1070
     1
1070
    44
1040
1.0
1070
    74
1070
     0
1000
MTEXTEND
  0
MTEXT
  5
35A
330
1F
100
AcDbEntity
  8
0
100
AcDbMText
 10
530.1888852939909
 20
258.4061393106779
 30
0.0
 40
20.0
 41
101.3041646945203
 71
     1
 72
     5
  1
{\fSimSun|b0|i0|c134|p54;批 准}
 73
     1
 44
1.0
1001
ACAD
1000
MTEXTBEGIN
1070
    73
1070
     1
1070
    44
1040
1.0
1070
    74
1070
     0
1000
MTEXTEND
  0
MTEXT
  5
35B
330
1F
100
AcDbEntity
  8
0
100
AcDbMText
 10
530.1888852939909
 20
290.7591376658086
 30
0.0
 40
20.0
 41
101.3041646945203
 71
     1
 72
     5
  1
{\fSimSun|b0|i0|c134|p54;审 核}
 73
     1
 44
1.0
1001
ACAD
1000
MTEXTBEGIN
1070
    73
1070
     1
1070
    44
1040
1.0
1070
    74
1070
     0
1000
MTEXTEND
  0
LINE
  5
35C
330
1F
100
AcDbEntity
  8
0
100
AcDbLine
 10
967.2206491668067
 20
294.2934982889413
 30
0.0
 11
967.2206491668067
 21
226.9811521262521
 31
0.0
  0
LINE
  5
35D
330
1F
100
AcDbEntity
  8
0
100
AcDbLine
 10
618.1590981203362
 20
294.2934982889413
 30
0.0
 11
618.1590981203362
 21
226.9811521262521
 31
0.0
  0
MTEXT
  5
35E
330
1F
100
AcDbEntity
  8
0
100
AcDbMText
 10
833.874315304568
 20
1684.560657129564
 30
0.0
 40
20.0
 41
144.5691098365569
 71
     1
 72
     5
  1
{\fSimSun|b0|i0|c134|p54;日 期}
 73
     1
 44
1.0
1001
ACAD
1000
MTEXTBEGIN
1070
    73
1070
     1
1070
    44
1040
1.0
1070
    74
1070
     0
1000
MTEXTEND
  0
MTEXT
  5
35F
330
1F
100
AcDbEntity
  8
0
100
AcDbMText
 10
368.7550511588586
 20
1684.560657129564
 30
0.0
 40
20.0
 41
144.5691098365569
 71
     1
 72
     5
  1
{\fSimSun|b0|i0|c134|p54;设 计}
 73
     1
 44
1.0
1001
ACAD
1000
MTEXTBEGIN
1070
    73
1070
     1
1070
    44
1040
1.0
1070
    74
1070
     0
1000
MTEXTEND
  0
MTEXT
  5
360
330
1F
100
AcDbEntity
  8
0
100
AcDbMText
 10
519.4925621464163
 20
393.0217852786876
 30
0.0
 40
20.0
 41
318.7499999999991
 71
     1
 72
     5
  1
{\fSimSun|b0|i0|c134|p54;\H0.75x;材 料:}
 73
     1
 44
1.0
1001
ACAD
1000
MTEXTBEGIN
1070
    73
1070
     1
1070
    44
1040
1.0
1070
    74
1070
     0
1000
MTEXTEND
  0
MTEXT
  5
361
330
1F
100
AcDbEntity
  8
0
100
AcDbMText
 10
519.4925621464163
 20
349.0034049336203
 30
0.0
 40
15.0
 41
318.7499999999991
 71
     1
 72
     5
  1
{\fSimSun|b0|i0|c134|p54;产品编号:}
 73
     1
 44
1.0
1001
ACAD
1000
MTEXTBEGIN
1070
    73
1070
     1
1070
    44
1040
1.0
1070
    74
1070
     0
1000
MTEXTEND
  0
LINE
  5
362
330
1F
100
AcDbEntity
  8
0
100
AcDbLine
 10
857.1977948967569
 20
294.2934982889413
 30
0.0
 11
857.1977948967569
 21
226.9811521262521
 31
0.0
  0
LINE
  5
363
330
1F
100
AcDbEntity
  8
0
100
AcDbLine
 10
516.8549334258159
 20
260.6373252075949
 30
0.0
 11
1154.354933425816
 21
260.6373252075967
 31
0.0
  0
LINE
  5
364
330
1F
100
AcDbEntity
  8
Title Block
100
AcDbLine
 10
329.3549334258157
 20
1651.981152126252
 30
0.0
 11
1154.354933425816
 21
1651.981152126252
 31
0.0
  0
LINE
  5
365
330
1F
100
AcDbEntity
  8
Title Block
100
AcDbLine
 10
329.3549334258157
 20
1689.481152126252
 30
0.0
 11
1154.354933425816
 21
1689.481152126252
 31
0.0
  0
LINE
  5
368
330
1F
100
AcDbEntity
  8
Title Block
100
AcDbLine
 10
329.3549334258157
 20
1726.981152126252
 30
0.0
 11
329.3549334258157
 21
1618.374950184857
 31
0.0
  0
LINE
  5
36A
330
1F
100
AcDbEntity
  8
Title Block
100
AcDbLine
 10
473.9240432623725
 20
1651.981152126252
 30
0.0
 11
473.9240432623725
 21
1689.481152126252
 31
0.0
  0
LINE
  5
36B
330
1F
100
AcDbEntity
  8
Title Block
100
AcDbLine
 10
823.1175993111929
 20
1651.981152126252
 30
0.0
 11
823.1175993111929
 21
1689.481152126252
 31
0.0
  0
LINE
  5
36C
330
1F
100
AcDbEntity
  8
Title Block
100
AcDbLine
 10
912.9586970086338
 20
1651.981152126252
 30
0.0
 11
912.9586970086338
 21
1689.481152126252
 31
0.0
  0
LINE
  5
36E
330
1F
100
AcDbEntity
  8
Title Block
100
AcDbLine
 10
516.8549334258159
 20
351.4703980517619
 30
0.0
 11
1154.354933425816
 21
351.4703980517619
 31
0.0
  0
LINE
  5
36F
330
1F
100
AcDbEntity
  8
Title Block
100
AcDbLine
 10
216.8549334258157
 20
294.2934982889413
 30
0.0
 11
1154.354933425816
 21
294.2934982889413
 31
0.0
  0
LINE
  5
370
330
1F
100
AcDbEntity
  8
Title Block
100
AcDbLine
 10
216.8549334258157
 20
396.647297814586
 30
0.0
 11
1154.354933425816
 21
396.647297814586
 31
0.0
  0
LINE
  5
371
330
1F
100
AcDbEntity
  8
Title Block
100
AcDbLine
 10
516.8549334258159
 20
226.9811521262521
 30
0.0
 11
516.8549334258159
 21
396.647297814586
 31
0.0
  0
LINE
  5
372
330
1F
100
AcDbEntity
  8
Title Block
100
AcDbLine
 10
216.8549334258157
 20
226.9811521262521
 30
0.0
 11
216.8549334258157
 21
396.647297814586
 31
0.0
  0
MTEXT
  5
376
330
1F
100
AcDbEntity
  8
0
100
AcDbMText
 10
224.1549306086479
 20
376.8046241036275
 30
0.0
 40
30.0
 41
618.75
 71
     1
 72
     5
  1
{\fSimSun|b0|i0|c134|p54;\H1.667x;东原厨具}
 73
     1
 44
1.0
1001
ACAD
1000
MTEXTBEGIN
1070
    73
1070
     1
1070
    44
1040
1.0
1070
    74
1070
     0
1000
MTEXTEND
  0
MTEXT
  5
377
330
1F
100
AcDbEntity
  8
0
100
AcDbMText
 10
522.5971808915737
 20
1687.472328996442
 30
0.0
 40
30.0
 41
349.19355604882
 71
     1
 72
     5
  1
Ben
 73
     1
 44
1.0
1001
ACAD
1000
MTEXTBEGIN
1070
    73
1070
     1
1070
    44
1040
1.0
1070
    74
1070
     0
1000
MTEXTEND
  0
MTEXT
  5
378
330
1F
100
AcDbEntity
  8
0
100
AcDbMText
 10
924.1887664100241
 20
1681.645214126263
 30
0.0
 40
15.0
 41
246.5161472592154
 71
     1
 72
     5
  1
   {\fSimSun|b0|i0|c134|p18;2005 \fSimSun|b0|i0|c134|p54;年 01 月 01 日}
 73
     1
 44
1.0
1001
ACAD
1000
MTEXTBEGIN
1070
    73
1070
     1
1070
    44
1040
1.0
1070
    74
1070
     0
1000
MTEXTEND
  0
ENDSEC
  0
SECTION
  2
OBJECTS
  0
DICTIONARY
  5
C
330
0
100
AcDbDictionary
281
     1
  3
ACAD_COLOR
350
73
  3
ACAD_GROUP
350
D
  3
ACAD_LAYOUT
350
1A
  3
ACAD_MATERIAL
350
72
  3
ACAD_MLINESTYLE
350
17
  3
ACAD_PLOTSETTINGS
350
19
  3
ACAD_PLOTSTYLENAME
350
E
  3
ACDBHEADERROUNDTRIPXREC
350
5F3
  3
AcDbVariableDictionary
350
66
  0
DICTIONARY
  5
337
330
336
100
AcDbDictionary
280
     1
281
     1
  3
ACAD_DIMASSOC
360
338
  0
DICTIONARY
  5
73
102
{ACAD_REACTORS
330
C
102
}
330
C
100
AcDbDictionary
281
     1
  0
DICTIONARY
  5
D
102
{ACAD_REACTORS
330
C
102
}
330
C
100
AcDbDictionary
281
     1
  0
DICTIONARY
  5
1A
102
{ACAD_REACTORS
330
C
102
}
330
C
100
AcDbDictionary
281
     1
  3
Model
350
22
  3
布局1
350
59
  3
布局2
350
5E
  0
DICTIONARY
  5
72
102
{ACAD_REACTORS
330
C
102
}
330
C
100
AcDbDictionary
281
     1
  0
DICTIONARY
  5
17
102
{ACAD_REACTORS
330
C
102
}
330
C
100
AcDbDictionary
281
     1
  3
Standard
350
18
  0
DICTIONARY
  5
19
102
{ACAD_REACTORS
330
C
102
}
330
C
100
AcDbDictionary
281
     1
  0
ACDBDICTIONARYWDFLT
  5
E
102
{ACAD_REACTORS
330
C
102
}
330
C
100
AcDbDictionary
281
     1
  3
Normal
350
F
100
AcDbDictionaryWithDefault
340
F
  0
DICTIONARY
  5
5F3
102
{ACAD_REACTORS
330
C
102
}
330
C
100
AcDbDictionary
281
     1
  3
COLORDICT
350
5F5
  3
MATERIALDICT
350
5F4
  0
DICTIONARY
  5
66
102
{ACAD_REACTORS
330
C
102
}
330
C
100
AcDbDictionary
281
     1
  3
DIMASSOC
350
67
  3
HIDETEXT
350
6B
  3
PROJECTNAME
350
5F1
  0
DIMASSOC
  5
338
102
{ACAD_REACTORS
330
337
102
}
330
337
100
AcDbDimAssoc
330
336
 90
        1
 70
     0
 71
     0
  1
AcDbOsnapPointRef
 72
     1
331
346
 73
     2
 91
        0
 40
1.0
 10
0.0
 20
0.0
 30
2.000000000000000E+50
 75
     0
  0
LAYOUT
  5
22
102
{ACAD_XDICTIONARY
360
5F6
102
}
102
{ACAD_REACTORS
330
1A
102
}
330
1A
100
AcDbPlotSettings
  1

  2
EPSON Stylus Photo 830U Series
  4
A4
  6

 40
3.757083177566528
 41
14.7637300491333
 42
3.757080078125
 43
3.757080078125
 44
209.9733276367187
 45
296.9683227539062
 46
0.43
 47
0.0
 48
86.53747570817207
 49
46.97208371375261
140
1172.537475708172
141
1546.972083713753
142
1.0
143
5.387011669992009
 70
 11956
 72
     1
 73
     0
 74
     4
  7

 75
     0
147
0.185631675084432
148
-86.53747570817207
149
-46.97208371375261
100
AcDbLayout
  1
Model
 70
     1
 71
     0
 10
0.0
 20
0.0
 11
12.0
 21
9.0
 12
0.0
 22
0.0
 32
0.0
 14
0.0
 24
0.0
 34
0.0
 15
0.0
 25
0.0
 35
0.0
146
0.0
 13
0.0
 23
0.0
 33
0.0
 16
1.0
 26
0.0
 36
0.0
 17
0.0
 27
1.0
 37
0.0
 76
     0
330
1F
  0
LAYOUT
  5
59
102
{ACAD_XDICTIONARY
360
5F8
102
}
102
{ACAD_REACTORS
330
1A
102
}
330
1A
100
AcDbPlotSettings
  1

  2
None
  4

  6

 40
0.0
 41
0.0
 42
0.0
 43
0.0
 44
0.0
 45
0.0
 46
0.0
 47
0.0
 48
0.0
 49
0.0
140
0.0
141
0.0
142
1.0
143
1.0
 70
   688
 72
     0
 73
     0
 74
     5
  7

 75
    16
147
1.0
148
0.0
149
0.0
100
AcDbLayout
  1
布局1
 70
     1
 71
     1
 10
0.0
 20
0.0
 11
12.0
 21
9.0
 12
0.0
 22
0.0
 32
0.0
 14
0.0
 24
0.0
 34
0.0
 15
0.0
 25
0.0
 35
0.0
146
0.0
 13
0.0
 23
0.0
 33
0.0
 16
1.0
 26
0.0
 36
0.0
 17
0.0
 27
1.0
 37
0.0
 76
     0
330
58
  0
LAYOUT
  5
5E
102
{ACAD_XDICTIONARY
360
5FA
102
}
102
{ACAD_REACTORS
330
1A
102
}
330
1A
100
AcDbPlotSettings
  1

  2
None
  4

  6

 40
0.0
 41
0.0
 42
0.0
 43
0.0
 44
0.0
 45
0.0
 46
0.0
 47
0.0
 48
0.0
 49
0.0
140
0.0
141
0.0
142
1.0
143
1.0
 70
   688
 72
     0
 73
     0
 74
     5
  7

 75
    16
147
1.0
148
0.0
149
0.0
100
AcDbLayout
  1
布局2
 70
     1
 71
     2
 10
0.0
 20
0.0
 11
12.0
 21
9.0
 12
0.0
 22
0.0
 32
0.0
 14
0.0
 24
0.0
 34
0.0
 15
0.0
 25
0.0
 35
0.0
146
0.0
 13
0.0
 23
0.0
 33
0.0
 16
1.0
 26
0.0
 36
0.0
 17
0.0
 27
1.0
 37
0.0
 76
     0
330
5D
  0
MLINESTYLE
  5
18
102
{ACAD_REACTORS
330
17
102
}
330
17
100
AcDbMlineStyle
  2
STANDARD
 70
     0
  3

 62
   256
 51
90.0
 52
90.0
 71
     2
 49
0.5
 62
   256
  6
BYLAYER
 49
-0.5
 62
   256
  6
BYLAYER
  0
ACDBPLACEHOLDER
  5
F
102
{ACAD_REACTORS
330
E
102
}
330
E
  0
XRECORD
  5
5F5
102
{ACAD_REACTORS
330
5F3
102
}
330
5F3
100
AcDbXrecord
280
     1
340
73
  0
XRECORD
  5
5F4
102
{ACAD_REACTORS
330
5F3
102
}
330
5F3
100
AcDbXrecord
280
     1
340
72
  0
DICTIONARYVAR
  5
67
102
{ACAD_REACTORS
330
66
102
}
330
66
100
DictionaryVariables
280
     0
  1
2
  0
DICTIONARYVAR
  5
6B
102
{ACAD_REACTORS
330
66
102
}
330
66
100
DictionaryVariables
280
     0
  1
1
  0
DICTIONARYVAR
  5
5F1
102
{ACAD_REACTORS
330
66
102
}
330
66
100
DictionaryVariables
280
     0
  1

  0
DICTIONARY
  5
5F6
330
22
100
AcDbDictionary
280
     1
281
     1
  3
ACAD_XREC_ROUNDTRIP
360
5F7
  0
DICTIONARY
  5
5F8
330
59
100
AcDbDictionary
280
     1
281
     1
  3
ACAD_XREC_ROUNDTRIP
360
5F9
  0
DICTIONARY
  5
5FA
330
5E
100
AcDbDictionary
280
     1
281
     1
  3
ACAD_XREC_ROUNDTRIP
360
5FB
  0
XRECORD
  5
5F7
102
{ACAD_REACTORS
330
5F6
102
}
330
5F6
100
AcDbXrecord
280
     1
102
SHADEPLOT
 70
     0
102
SHADEPLOTRESLEVEL
 70
     2
102
SHADEPLOTCUSTOMDPI
 70
   180
  0
XRECORD
  5
5F9
102
{ACAD_REACTORS
330
5F8
102
}
330
5F8
100
AcDbXrecord
280
     1
102
SHADEPLOT
 70
     0
102
SHADEPLOTRESLEVEL
 70
     2
102
SHADEPLOTCUSTOMDPI
 70
   300
  0
XRECORD
  5
5FB
102
{ACAD_REACTORS
330
5FA
102
}
330
5FA
100
AcDbXrecord
280
     1
102
SHADEPLOT
 70
     0
102
SHADEPLOTRESLEVEL
 70
     2
102
SHADEPLOTCUSTOMDPI
 70
   300
  0
ENDSEC
  0
EOF
