  0
SECTION
  2
HEADER
  9
$ACADVER
  1
AC1015
  9
$ACADMAINTVER
 70
    20
  9
$DWGCODEPAGE
  3
ANSI_936
  9
$INSBASE
 10
0.0
 20
0.0
 30
0.0
  9
$EXTMIN
 10
-9333.32959243223
 20
3857.983764540281
 30
0.0
  9
$EXTMAX
 10
-8727.202653736602
 20
4476.211400999027
 30
0.0
  9
$LIMMIN
 10
0.0
 20
0.0
  9
$LIMMAX
 10
420.0
 20
297.0
  9
$ORTHOMODE
 70
     1
  9
$REGENMODE
 70
     1
  9
$FILLMODE
 70
     1
  9
$QTEXTMODE
 70
     0
  9
$MIRRTEXT
 70
     0
  9
$LTSCALE
 40
1.0
  9
$ATTMODE
 70
     1
  9
$TEXTSIZE
 40
2.5
  9
$TRACEWID
 40
1.0
  9
$TEXTSTYLE
  7
Standard
  9
$CLAYER
  8
0
  9
$CELTYPE
  6
ByLayer
  9
$CECOLOR
 62
   256
  9
$CELTSCALE
 40
1.0
  9
$DISPSILH
 70
     0
  9
$DIMSCALE
 40
1.0
  9
$DIMASZ
 40
15.0
  9
$DIMEXO
 40
8.0
  9
$DIMDLI
 40
3.75
  9
$DIMRND
 40
0.0
  9
$DIMDLE
 40
0.0
  9
$DIMEXE
 40
8.0
  9
$DIMTP
 40
0.0
  9
$DIMTM
 40
0.0
  9
$DIMTXT
 40
20.0
  9
$DIMCEN
 40
0.0
  9
$DIMTSZ
 40
0.0
  9
$DIMTOL
 70
     0
  9
$DIMLIM
 70
     0
  9
$DIMTIH
 70
     0
  9
$DIMTOH
 70
     0
  9
$DIMSE1
 70
     0
  9
$DIMSE2
 70
     0
  9
$DIMTAD
 70
     1
  9
$DIMZIN
 70
     8
  9
$DIMBLK
  1

  9
$DIMASO
 70
     1
  9
$DIMSHO
 70
     1
  9
$DIMPOST
  1

  9
$DIMAPOST
  1

  9
$DIMALT
 70
     0
  9
$DIMALTD
 70
     3
  9
$DIMALTF
 40
0.03937007874016
  9
$DIMLFAC
 40
1.0
  9
$DIMTOFL
 70
     1
  9
$DIMTVP
 40
0.0
  9
$DIMTIX
 70
     0
  9
$DIMSOXD
 70
     0
  9
$DIMSAH
 70
     0
  9
$DIMBLK1
  1

  9
$DIMBLK2
  1

  9
$DIMSTYLE
  2
ISO-25
  9
$DIMCLRD
 70
     6
  9
$DIMCLRE
 70
     6
  9
$DIMCLRT
 70
     0
  9
$DIMTFAC
 40
1.0
  9
$DIMGAP
 40
3.0
  9
$DIMJUST
 70
     0
  9
$DIMSD1
 70
     0
  9
$DIMSD2
 70
     0
  9
$DIMTOLJ
 70
     0
  9
$DIMTZIN
 70
     8
  9
$DIMALTZ
 70
     0
  9
$DIMALTTZ
 70
     0
  9
$DIMUPT
 70
     0
  9
$DIMDEC
 70
     1
  9
$DIMTDEC
 70
     1
  9
$DIMALTU
 70
     2
  9
$DIMALTTD
 70
     3
  9
$DIMTXSTY
  7
Standard
  9
$DIMAUNIT
 70
     0
  9
$DIMADEC
 70
     0
  9
$DIMALTRND
 40
0.0
  9
$DIMAZIN
 70
     2
  9
$DIMDSEP
 70
    44
  9
$DIMATFIT
 70
     3
  9
$DIMFRAC
 70
     0
  9
$DIMLDRBLK
  1

  9
$DIMLUNIT
 70
     2
  9
$DIMLWD
 70
    15
  9
$DIMLWE
 70
    15
  9
$DIMTMOVE
 70
     0
  9
$LUNITS
 70
     2
  9
$LUPREC
 70
     4
  9
$SKETCHINC
 40
1.0
  9
$FILLETRAD
 40
20.0
  9
$AUNITS
 70
     0
  9
$AUPREC
 70
     0
  9
$MENU
  1
.
  9
$ELEVATION
 40
0.0
  9
$PELEVATION
 40
0.0
  9
$THICKNESS
 40
0.0
  9
$LIMCHECK
 70
     0
  9
$CHAMFERA
 40
0.0
  9
$CHAMFERB
 40
0.0
  9
$CHAMFERC
 40
17.55
  9
$CHAMFERD
 40
0.7853981633974483
  9
$SKPOLY
 70
     0
  9
$TDCREATE
 40
2453802.408910949
  9
$TDUCREATE
 40
2453802.075577616
  9
$TDUPDATE
 40
2455254.662160915
  9
$TDUUPDATE
 40
2455254.328827581
  9
$TDINDWG
 40
4.2165425000
  9
$TDUSRTIMER
 40
4.2165405093
  9
$USRTIMER
 70
     1
  9
$ANGBASE
 50
0.0
  9
$ANGDIR
 70
     0
  9
$PDMODE
 70
     0
  9
$PDSIZE
 40
0.0
  9
$PLINEWID
 40
0.0
  9
$SPLFRAME
 70
     0
  9
$SPLINETYPE
 70
     6
  9
$SPLINESEGS
 70
     8
  9
$HANDSEED
  5
1EDC9
  9
$SURFTAB1
 70
     6
  9
$SURFTAB2
 70
     6
  9
$SURFTYPE
 70
     6
  9
$SURFU
 70
     6
  9
$SURFV
 70
     6
  9
$UCSBASE
  2

  9
$UCSNAME
  2

  9
$UCSORG
 10
0.0
 20
0.0
 30
0.0
  9
$UCSXDIR
 10
1.0
 20
0.0
 30
0.0
  9
$UCSYDIR
 10
0.0
 20
1.0
 30
0.0
  9
$UCSORTHOREF
  2

  9
$UCSORTHOVIEW
 70
     1
  9
$UCSORGTOP
 10
0.0
 20
0.0
 30
0.0
  9
$UCSORGBOTTOM
 10
0.0
 20
0.0
 30
0.0
  9
$UCSORGLEFT
 10
0.0
 20
0.0
 30
0.0
  9
$UCSORGRIGHT
 10
0.0
 20
0.0
 30
0.0
  9
$UCSORGFRONT
 10
0.0
 20
0.0
 30
0.0
  9
$UCSORGBACK
 10
0.0
 20
0.0
 30
0.0
  9
$PUCSBASE
  2

  9
$PUCSNAME
  2

  9
$PUCSORG
 10
0.0
 20
0.0
 30
0.0
  9
$PUCSXDIR
 10
1.0
 20
0.0
 30
0.0
  9
$PUCSYDIR
 10
0.0
 20
1.0
 30
0.0
  9
$PUCSORTHOREF
  2

  9
$PUCSORTHOVIEW
 70
     0
  9
$PUCSORGTOP
 10
0.0
 20
0.0
 30
0.0
  9
$PUCSORGBOTTOM
 10
0.0
 20
0.0
 30
0.0
  9
$PUCSORGLEFT
 10
0.0
 20
0.0
 30
0.0
  9
$PUCSORGRIGHT
 10
0.0
 20
0.0
 30
0.0
  9
$PUCSORGFRONT
 10
0.0
 20
0.0
 30
0.0
  9
$PUCSORGBACK
 10
0.0
 20
0.0
 30
0.0
  9
$USERI1
 70
     0
  9
$USERI2
 70
     0
  9
$USERI3
 70
     0
  9
$USERI4
 70
     0
  9
$USERI5
 70
     0
  9
$USERR1
 40
0.0
  9
$USERR2
 40
0.0
  9
$USERR3
 40
0.0
  9
$USERR4
 40
0.0
  9
$USERR5
 40
0.0
  9
$WORLDVIEW
 70
     1
  9
$SHADEDGE
 70
     3
  9
$SHADEDIF
 70
    70
  9
$TILEMODE
 70
     1
  9
$MAXACTVP
 70
    64
  9
$PINSBASE
 10
0.0
 20
0.0
 30
0.0
  9
$PLIMCHECK
 70
     0
  9
$PEXTMIN
 10
0.0
 20
0.0
 30
0.0
  9
$PEXTMAX
 10
0.0
 20
0.0
 30
0.0
  9
$PLIMMIN
 10
0.0
 20
0.0
  9
$PLIMMAX
 10
12.0
 20
9.0
  9
$UNITMODE
 70
     0
  9
$VISRETAIN
 70
     1
  9
$PLINEGEN
 70
     0
  9
$PSLTSCALE
 70
     1
  9
$TREEDEPTH
 70
  3020
  9
$CMLSTYLE
  2
Standard
  9
$CMLJUST
 70
     0
  9
$CMLSCALE
 40
20.0
  9
$PROXYGRAPHICS
 70
     1
  9
$MEASUREMENT
 70
     1
  9
$CELWEIGHT
370
    -1
  9
$ENDCAPS
280
     0
  9
$JOINSTYLE
280
     0
  9
$LWDISPLAY
290
     0
  9
$INSUNITS
 70
     4
  9
$HYPERLINKBASE
  1

  9
$STYLESHEET
  1
monochrome.ctb
  9
$XEDIT
290
     1
  9
$CEPSNTYPE
380
     0
  9
$PSTYLEMODE
290
     1
  9
$FINGERPRINTGUID
  2
{FDEAD578-A652-11D2-9A35-0060089B3A3F}
  9
$VERSIONGUID
  2
{F37FC0CC-F3DE-4EA8-BB6F-3ED5267F4991}
  9
$EXTNAMES
290
     1
  9
$PSVPSCALE
 40
0.0
  9
$OLESTARTUP
290
     0
  0
ENDSEC
  0
SECTION
  2
CLASSES
  0
CLASS
  1
ACDBDICTIONARYWDFLT
  2
AcDbDictionaryWithDefault
  3
ObjectDBX Classes
 90
        0
280
     0
281
     0
  0
CLASS
  1
ACDBPLACEHOLDER
  2
AcDbPlaceHolder
  3
ObjectDBX Classes
 90
        0
280
     0
281
     0
  0
CLASS
  1
LAYOUT
  2
AcDbLayout
  3
ObjectDBX Classes
 90
        0
280
     0
281
     0
  0
CLASS
  1
DICTIONARYVAR
  2
AcDbDictionaryVar
  3
ObjectDBX Classes
 90
        0
280
     0
281
     0
  0
CLASS
  1
DIMASSOC
  2
AcDbDimAssoc
  3
"AcDbDimAssoc|Product Desc:     AcDim ARX App For Dimension|Company:          Autodesk, Inc.|WEB Address:      www.autodesk.com"
 90
        0
280
     0
281
     0
  0
CLASS
  1
SORTENTSTABLE
  2
AcDbSortentsTable
  3
ObjectDBX Classes
 90
        0
280
     0
281
     0
  0
CLASS
  1
TABLESTYLE
  2
AcDbTableStyle
  3
ObjectDBX Classes
 90
     2047
280
     0
281
     0
  0
ENDSEC
  0
SECTION
  2
TABLES
  0
TABLE
  2
VPORT
  5
8
330
0
100
AcDbSymbolTable
 70
     2
  0
VPORT
  5
1EDB8
330
8
100
AcDbSymbolTableRecord
100
AcDbViewportTableRecord
  2
*Active
 70
     0
 10
0.0
 20
0.0
 11
1.0
 21
1.0
 12
-9029.764979841784
 22
4167.15879133475
 13
0.0
 23
0.0
 14
10.0
 24
10.0
 15
10.0
 25
10.0
 16
0.0
 26
0.0
 36
1.0
 17
0.0
 27
0.0
 37
0.0
 40
625.1260676260683
 41
1.586251621271076
 42
50.0
 43
0.0
 44
0.0
 50
0.0
 51
0.0
 71
     0
 72
  1000
 73
     1
 74
     3
 75
     0
 76
     0
 77
     0
 78
     0
281
     0
 65
     1
110
0.0
120
0.0
130
0.0
111
1.0
121
0.0
131
0.0
112
0.0
122
1.0
132
0.0
 79
     1
146
0.0
  0
ENDTAB
  0
TABLE
  2
LTYPE
  5
5
330
0
100
AcDbSymbolTable
 70
     9
  0
LTYPE
  5
14
330
5
100
AcDbSymbolTableRecord
100
AcDbLinetypeTableRecord
  2
ByBlock
 70
     0
  3

 72
    65
 73
     0
 40
0.0
  0
LTYPE
  5
15
330
5
100
AcDbSymbolTableRecord
100
AcDbLinetypeTableRecord
  2
ByLayer
 70
     0
  3

 72
    65
 73
     0
 40
0.0
  0
LTYPE
  5
16
330
5
100
AcDbSymbolTableRecord
100
AcDbLinetypeTableRecord
  2
Continuous
 70
     0
  3
Solid line
 72
    65
 73
     0
 40
0.0
  0
LTYPE
  5
16F
330
5
100
AcDbSymbolTableRecord
100
AcDbLinetypeTableRecord
  2
ACAD_ISO10W100
 70
     0
  3
ISO dash dot __ . __ . __ . __ . __ . __ . __ .
 72
    65
 73
     4
 40
18.0
 49
12.0
 74
     0
 49
-3.0
 74
     0
 49
0.0
 74
     0
 49
-3.0
 74
     0
  0
LTYPE
  5
ACB
330
5
100
AcDbSymbolTableRecord
100
AcDbLinetypeTableRecord
  2
ACAD_ISO02W100
 70
     0
  3
ISO dash __ __ __ __ __ __ __ __ __ __ __ __ __
 72
    65
 73
     2
 40
15.0
 49
12.0
 74
     0
 49
-3.0
 74
     0
  0
LTYPE
  5
ACC
330
5
100
AcDbSymbolTableRecord
100
AcDbLinetypeTableRecord
  2
HIDDEN2
 70
     0
  3
Hidden (.5x) _ _ _ _ _ _ _ _ _ _ _ _ _ _ _ _ _
 72
    65
 73
     2
 40
0.1875
 49
0.125
 74
     0
 49
-0.0625
 74
     0
  0
LTYPE
  5
F43A
330
5
100
AcDbSymbolTableRecord
100
AcDbLinetypeTableRecord
  2
ACAD_ISO08W100
 70
     0
  3
ISO long-dash short-dash ____ __ ____ __ ____ _
 72
    65
 73
     4
 40
36.0
 49
24.0
 74
     0
 49
-3.0
 74
     0
 49
6.0
 74
     0
 49
-3.0
 74
     0
  0
LTYPE
  5
FC13
330
5
100
AcDbSymbolTableRecord
100
AcDbLinetypeTableRecord
  2
CENTER2
 70
     0
  3
Center (.5x) ___ _ ___ _ ___ _ ___ _ ___ _ ___
 72
    65
 73
     4
 40
28.575
 49
19.05
 74
     0
 49
-3.174999999999999
 74
     0
 49
3.174999999999999
 74
     0
 49
-3.174999999999999
 74
     0
  0
LTYPE
  5
1A52B
330
5
100
AcDbSymbolTableRecord
100
AcDbLinetypeTableRecord
  2
HIDDEN
 70
     0
  3
- - - - - - - - - - - - - - - - - - - -
 72
    65
 73
     2
 40
0.2
 49
0.1
 74
     0
 49
-0.1
 74
     0
  0
LTYPE
  5
1A52C
330
5
100
AcDbSymbolTableRecord
100
AcDbLinetypeTableRecord
  2
DASHED
 70
     0
  3
- - - - - - - - - - - - - - - - - - - -
 72
    65
 73
     2
 40
0.2
 49
0.1
 74
     0
 49
-0.1
 74
     0
  0
LTYPE
  5
1A52D
330
5
100
AcDbSymbolTableRecord
100
AcDbLinetypeTableRecord
  2
DASHEDX2
 70
     0
  3
Dashed (2x) ____  ____  ____  ____  ____  ___
 72
    65
 73
     2
 40
1.5
 49
1.0
 74
     0
 49
-0.5
 74
     0
  0
ENDTAB
  0
TABLE
  2
LAYER
  5
2
102
{ACAD_XDICTIONARY
360
FBE5
102
}
330
0
100
AcDbSymbolTable
 70
    19
  0
LAYER
  5
10
330
2
100
AcDbSymbolTableRecord
100
AcDbLayerTableRecord
  2
0
 70
     0
 62
     7
  6
Continuous
370
    -3
390
F
  0
LAYER
  5
AD
330
2
100
AcDbSymbolTableRecord
100
AcDbLayerTableRecord
  2
Defpoints
 70
     0
 62
     7
  6
Continuous
290
     0
370
    -3
390
F
  0
LAYER
  5
ACD
330
2
100
AcDbSymbolTableRecord
100
AcDbLayerTableRecord
  2
Title Block
 70
     0
 62
     7
  6
Continuous
370
    -3
390
F
  0
LAYER
  5
ACE
330
2
100
AcDbSymbolTableRecord
100
AcDbLayerTableRecord
  2
图层1
 70
     0
 62
     7
  6
HIDDEN2
370
    -3
390
F
  0
LAYER
  5
5948
330
2
100
AcDbSymbolTableRecord
100
AcDbLayerTableRecord
  2
图层2
 70
     0
 62
     7
  6
HIDDEN2
370
    -3
390
F
  0
LAYER
  5
5949
330
2
100
AcDbSymbolTableRecord
100
AcDbLayerTableRecord
  2
图层3
 70
     0
 62
     7
  6
Continuous
370
    -3
390
F
  0
LAYER
  5
FC14
330
2
100
AcDbSymbolTableRecord
100
AcDbLayerTableRecord
  2
标注线
 70
     0
 62
     6
  6
Continuous
370
    -3
390
F
  0
LAYER
  5
FC15
330
2
100
AcDbSymbolTableRecord
100
AcDbLayerTableRecord
  2
中心线
 70
     0
 62
     1
  6
CENTER2
370
    -3
390
F
  0
LAYER
  5
FC16
330
2
100
AcDbSymbolTableRecord
100
AcDbLayerTableRecord
  2
虚线
 70
     0
 62
     3
  6
HIDDEN2
370
    -3
390
F
  0
LAYER
  5
11E1D
330
2
100
AcDbSymbolTableRecord
100
AcDbLayerTableRecord
  2
粗实线
 70
     0
 62
     7
  6
Continuous
370
    40
390
F
  0
LAYER
  5
11E1E
330
2
100
AcDbSymbolTableRecord
100
AcDbLayerTableRecord
  2
细实线
 70
     0
 62
     7
  6
Continuous
370
    -3
390
F
  0
LAYER
  5
186CC
330
2
100
AcDbSymbolTableRecord
100
AcDbLayerTableRecord
  2
标注
 70
     0
 62
    80
  6
Continuous
370
     9
390
F
1001
AcAecLayerStandard
1000

1000

  0
LAYER
  5
1A52E
330
2
100
AcDbSymbolTableRecord
100
AcDbLayerTableRecord
  2
DEFAULT_2
 70
     0
 62
     8
  6
HIDDEN
370
    -3
390
F
  0
LAYER
  5
1A52F
330
2
100
AcDbSymbolTableRecord
100
AcDbLayerTableRecord
  2
02___PRT_ALL_AXES
 70
     0
 62
     7
  6
Continuous
370
    -3
390
F
  0
LAYER
  5
1A530
330
2
100
AcDbSymbolTableRecord
100
AcDbLayerTableRecord
  2
DIM
 70
     0
 62
     4
  6
Continuous
370
    -3
390
F
  0
LAYER
  5
1A531
330
2
100
AcDbSymbolTableRecord
100
AcDbLayerTableRecord
  2
LAYER1
 70
     0
 62
     4
  6
CENTER2
370
    13
390
F
  0
LAYER
  5
1A532
330
2
100
AcDbSymbolTableRecord
100
AcDbLayerTableRecord
  2
FINE LINE
 70
     0
 62
     1
  6
DASHEDX2
370
     9
390
F
  0
LAYER
  5
1A533
330
2
100
AcDbSymbolTableRecord
100
AcDbLayerTableRecord
  2
LAYER2
 70
     0
 62
     7
  6
HIDDEN2
370
    25
390
F
  0
LAYER
  5
1A534
330
2
100
AcDbSymbolTableRecord
100
AcDbLayerTableRecord
  2
LAYER3
 70
     0
 62
     2
  6
Continuous
370
     9
390
F
  0
ENDTAB
  0
TABLE
  2
STYLE
  5
3
330
0
100
AcDbSymbolTable
 70
     5
  0
STYLE
  5
11
330
3
100
AcDbSymbolTableRecord
100
AcDbTextStyleTableRecord
  2
Standard
 70
     0
 40
0.0
 41
1.0
 50
0.0
 71
     0
 42
2.5
  3
SimSun.ttf
  4

1001
ACAD
1000
SimSun
1071
    34306
  0
STYLE
  5
16E
330
3
100
AcDbSymbolTableRecord
100
AcDbTextStyleTableRecord
  2

 70
     1
 40
0.0
 41
1.0
 50
0.0
 71
     0
 42
2.5
  3
ltypeshp.shx
  4

  0
STYLE
  5
ACF
330
3
100
AcDbSymbolTableRecord
100
AcDbTextStyleTableRecord
  2
Roman
 70
     0
 40
0.0
 41
1.0
 50
0.0
 71
     0
 42
0.065
  3
romans
  4

  0
STYLE
  5
C7C7
330
3
100
AcDbSymbolTableRecord
100
AcDbTextStyleTableRecord
  2
STYLE10
 70
     0
 40
10.0
 41
1.0
 50
0.0
 71
     0
 42
10.0
  3
SIMPLEX.shx
  4

  0
STYLE
  5
F43B
330
3
100
AcDbSymbolTableRecord
100
AcDbTextStyleTableRecord
  2
STYLE5
 70
     0
 40
5.0
 41
1.0
 50
0.0
 71
     0
 42
5.0
  3
SIMPLEX.shx
  4

  0
ENDTAB
  0
TABLE
  2
VIEW
  5
6
330
0
100
AcDbSymbolTable
 70
     0
  0
ENDTAB
  0
TABLE
  2
UCS
  5
7
330
0
100
AcDbSymbolTable
 70
     0
  0
ENDTAB
  0
TABLE
  2
APPID
  5
9
330
0
100
AcDbSymbolTable
 70
    13
  0
APPID
  5
12
330
9
100
AcDbSymbolTableRecord
100
AcDbRegAppTableRecord
  2
ACAD
 70
     0
  0
APPID
  5
5D55
330
9
100
AcDbSymbolTableRecord
100
AcDbRegAppTableRecord
  2
DCO15
 70
     0
  0
APPID
  5
C7CA
330
9
100
AcDbSymbolTableRecord
100
AcDbRegAppTableRecord
  2
ACAD_DSTYLE_DIMEXT_LENGTH
 70
     0
  0
APPID
  5
C7CB
330
9
100
AcDbSymbolTableRecord
100
AcDbRegAppTableRecord
  2
ACAD_DSTYLE_DIMEXT_ENABLED
 70
     0
  0
APPID
  5
C7CC
330
9
100
AcDbSymbolTableRecord
100
AcDbRegAppTableRecord
  2
ACAD_DSTYLE_DIMJOGGED_JOGANGLE_SYMBOL
 70
     0
  0
APPID
  5
C7CD
330
9
100
AcDbSymbolTableRecord
100
AcDbRegAppTableRecord
  2
ACAD_DSTYLE_DIMARC_LENGTH_SYMBOL
 70
     0
  0
APPID
  5
12517
330
9
100
AcDbSymbolTableRecord
100
AcDbRegAppTableRecord
  2
ACAD_DSTYLE_DIMTEXT_FILL
 70
     0
  0
APPID
  5
1251A
330
9
100
AcDbSymbolTableRecord
100
AcDbRegAppTableRecord
  2
ACAD_DSTYLE_DIM_LINETYPE
 70
     0
  0
APPID
  5
1251B
330
9
100
AcDbSymbolTableRecord
100
AcDbRegAppTableRecord
  2
ACAD_DSTYLE_DIM_EXT1_LINETYPE
 70
     0
  0
APPID
  5
1251C
330
9
100
AcDbSymbolTableRecord
100
AcDbRegAppTableRecord
  2
ACAD_DSTYLE_DIM_EXT2_LINETYPE
 70
     0
  0
APPID
  5
186D0
330
9
100
AcDbSymbolTableRecord
100
AcDbRegAppTableRecord
  2
ACAD_PSEXT
 70
     0
  0
APPID
  5
186D1
330
9
100
AcDbSymbolTableRecord
100
AcDbRegAppTableRecord
  2
AcAecLayerStandard
 70
     0
  0
APPID
  5
19FA1
330
9
100
AcDbSymbolTableRecord
100
AcDbRegAppTableRecord
  2
ACAD_EXEMPT_FROM_CAD_STANDARDS
 70
     0
  0
ENDTAB
  0
TABLE
  2
DIMSTYLE
  5
A
330
0
100
AcDbSymbolTable
 70
    10
100
AcDbDimStyleTable
 71
     3
340
27
340
DC98
340
A0F8
  0
DIMSTYLE
105
27
102
{ACAD_REACTORS
330
1EBE5
330
1EBE8
330
1EBE2
330
1EBE1
330
1EC93
102
}
330
A
100
AcDbSymbolTableRecord
100
AcDbDimStyleTableRecord
  2
ISO-25
 70
     0
 41
15.0
 42
8.0
 43
3.75
 44
8.0
 73
     0
 74
     0
 77
     1
 78
     8
 79
     2
140
20.0
141
0.0
143
0.03937007874016
147
3.0
171
     3
172
     1
176
     6
177
     6
271
     1
272
     1
274
     3
278
    44
283
     0
284
     8
340
11
371
    15
372
    15
1001
ACAD_DSTYLE_DIMEXT_LENGTH
1070
   378
1040
1.25
1001
ACAD_DSTYLE_DIMEXT_ENABLED
1070
   383
1070
     0
1001
ACAD_DSTYLE_DIMARC_LENGTH_SYMBOL
1070
   379
1070
     0
1001
ACAD_DSTYLE_DIMJOGGED_JOGANGLE_SYMBOL
1070
   384
1040
1.570796326794896
  0
DIMSTYLE
105
AD0
330
A
100
AcDbSymbolTableRecord
100
AcDbDimStyleTableRecord
  2
01
 70
     0
 41
15.0
 42
0.625
 43
3.75
 44
1.25
 73
     0
 77
     1
 78
     8
140
15.0
141
2.5
143
0.03937007874016
147
0.625
171
     3
172
     1
176
     6
177
     6
271
     2
272
     2
274
     3
278
    44
283
     0
284
     8
340
11
371
     5
372
     5
  0
DIMSTYLE
105
3F97
330
A
100
AcDbSymbolTableRecord
100
AcDbDimStyleTableRecord
  2
1
 70
     0
 41
10.0
 42
0.65
 43
3.75
 44
14.0
 73
     0
 77
     1
 78
     8
140
15.0
141
2.5
143
0.03937007874016
147
0.625
171
     3
172
     1
271
     2
272
     2
274
     3
278
    44
283
     0
284
     8
288
     1
340
11
  0
DIMSTYLE
105
A0F8
330
A
100
AcDbSymbolTableRecord
100
AcDbDimStyleTableRecord
  2
副本ISO-25
 70
     0
 41
15.0
 42
0.625
 43
3.75
 44
1.25
 73
     0
 77
     1
 78
     8
140
15.0
141
2.5
143
0.03937007874016
147
0.625
170
     1
171
     1
172
     1
176
     6
177
     6
271
     2
272
     2
274
     1
278
    44
283
     0
284
     8
340
11
371
    15
372
    15
  0
DIMSTYLE
105
C7C8
330
A
100
AcDbSymbolTableRecord
100
AcDbDimStyleTableRecord
  2
副本01
 70
     0
 41
15.0
 42
0.625
 43
3.75
 44
1.25
 73
     0
 77
     1
 78
     9
 79
     2
140
18.0
141
0.5
143
0.03937007874
147
0.625
170
     1
176
     6
177
     6
271
     2
272
     2
283
     0
284
     8
285
    12
340
11
371
     5
372
     5
  0
DIMSTYLE
105
C7C9
330
A
100
AcDbSymbolTableRecord
100
AcDbDimStyleTableRecord
  2
10
 70
     0
 40
0.0
 41
3.0
 42
2.0
 43
10.0
 44
2.0
 73
     0
 77
     1
 78
     8
140
5.0
141
0.0
147
1.0
271
     2
272
     2
279
     2
284
     8
285
     8
286
     8
288
     1
340
C7C7
1001
ACAD_DSTYLE_DIMEXT_LENGTH
1070
   378
1040
2.0
1001
ACAD_DSTYLE_DIMEXT_ENABLED
1070
   383
1070
     0
1001
ACAD_DSTYLE_DIMARC_LENGTH_SYMBOL
1070
   379
1070
     0
1001
ACAD_DSTYLE_DIMJOGGED_JOGANGLE_SYMBOL
1070
   384
1040
0.7853981633974483
  0
DIMSTYLE
105
DC98
330
A
100
AcDbSymbolTableRecord
100
AcDbDimStyleTableRecord
  2
STANDARD
 70
     0
 73
     0
 78
     9
 79
     2
176
     6
177
     6
271
     2
272
     2
340
11
1001
ACAD_DSTYLE_DIMEXT_LENGTH
1070
   378
1040
0.18
1001
ACAD_DSTYLE_DIMEXT_ENABLED
1070
   383
1070
     0
1001
ACAD_DSTYLE_DIMARC_LENGTH_SYMBOL
1070
   379
1070
     0
1001
ACAD_DSTYLE_DIMJOGGED_JOGANGLE_SYMBOL
1070
   384
1040
1.570796326794896
  0
DIMSTYLE
105
186CD
330
A
100
AcDbSymbolTableRecord
100
AcDbDimStyleTableRecord
  2
DIMSTYLE_1
 70
     0
 47
0.01
 48
0.01
140
0.15625
144
125.0
289
     0
340
11
  0
DIMSTYLE
105
186CE
330
A
100
AcDbSymbolTableRecord
100
AcDbDimStyleTableRecord
  2
DIMSTYLE_2
 70
     0
 47
0.5
 48
0.5
140
0.15625
144
125.0
289
     0
340
11
  0
DIMSTYLE
105
186CF
330
A
100
AcDbSymbolTableRecord
100
AcDbDimStyleTableRecord
  2
XIAO
 70
     0
 41
3.5
 42
3.0
 43
1.0
 44
1.0
 73
     0
 74
     0
 77
     1
 78
     8
140
3.0
141
1.5
143
0.03937007874016
147
1.5
171
     3
172
     1
179
     1
271
     3
272
     3
274
     3
278
    44
283
     0
284
     8
340
11
  0
ENDTAB
  0
TABLE
  2
BLOCK_RECORD
  5
1
330
0
100
AcDbSymbolTable
 70
    35
  0
BLOCK_RECORD
  5
1F
102
{ACAD_XDICTIONARY
360
123C6
102
}
330
1
100
AcDbSymbolTableRecord
100
AcDbBlockTableRecord
  2
*Model_Space
340
22
  0
BLOCK_RECORD
  5
50
330
1
100
AcDbSymbolTableRecord
100
AcDbBlockTableRecord
  2
*Paper_Space
340
51
  0
BLOCK_RECORD
  5
55
330
1
100
AcDbSymbolTableRecord
100
AcDbBlockTableRecord
  2
*Paper_Space0
340
56
  0
BLOCK_RECORD
  5
BFC6
330
1
100
AcDbSymbolTableRecord
100
AcDbBlockTableRecord
  2
A$C1F725388
340
0
  0
BLOCK_RECORD
  5
C7CE
330
1
100
AcDbSymbolTableRecord
100
AcDbBlockTableRecord
  2
A$C7F795F7F
340
0
  0
BLOCK_RECORD
  5
FB9D
330
1
100
AcDbSymbolTableRecord
100
AcDbBlockTableRecord
  2
*D3
340
0
  0
BLOCK_RECORD
  5
FBA9
330
1
100
AcDbSymbolTableRecord
100
AcDbBlockTableRecord
  2
*D4
340
0
  0
BLOCK_RECORD
  5
FBB5
330
1
100
AcDbSymbolTableRecord
100
AcDbBlockTableRecord
  2
*D5
340
0
  0
BLOCK_RECORD
  5
FBC1
330
1
100
AcDbSymbolTableRecord
100
AcDbBlockTableRecord
  2
*D6
340
0
  0
BLOCK_RECORD
  5
FBCD
330
1
100
AcDbSymbolTableRecord
100
AcDbBlockTableRecord
  2
*D7
340
0
  0
BLOCK_RECORD
  5
FBD9
330
1
100
AcDbSymbolTableRecord
100
AcDbBlockTableRecord
  2
*D8
340
0
  0
BLOCK_RECORD
  5
FBE7
330
1
100
AcDbSymbolTableRecord
100
AcDbBlockTableRecord
  2
A$C54270A98
340
0
  0
BLOCK_RECORD
  5
11A79
330
1
100
AcDbSymbolTableRecord
100
AcDbBlockTableRecord
  2
A$C014A79D5
340
0
1001
ACAD
1000
DesignCenter Data
1002
{
1070
     1
1070
     4
1002
}
  0
BLOCK_RECORD
  5
186C7
330
1
100
AcDbSymbolTableRecord
100
AcDbBlockTableRecord
  2
d
340
0
310
2800000020000000200000000100080000000000000400000000000000000000000000000000000000000000000080000080000000808000800000008000800080800000C0C0C000C0DCC000F0CAA6000020400000206000002080000020A0000020C0000020E00000400000004020000040400000406000004080000040A0
310
000040C0000040E00000600000006020000060400000606000006080000060A0000060C0000060E00000800000008020000080400000806000008080000080A0000080C0000080E00000A0000000A0200000A0400000A0600000A0800000A0A00000A0C00000A0E00000C0000000C0200000C0400000C0600000C0800000C0
310
A00000C0C00000C0E00000E0000000E0200000E0400000E0600000E0800000E0A00000E0C00000E0E00040000000400020004000400040006000400080004000A0004000C0004000E00040200000402020004020400040206000402080004020A0004020C0004020E000404000004040200040404000404060004040800040
310
40A0004040C0004040E00040600000406020004060400040606000406080004060A0004060C0004060E00040800000408020004080400040806000408080004080A0004080C0004080E00040A0000040A0200040A0400040A0600040A0800040A0A00040A0C00040A0E00040C0000040C0200040C0400040C0600040C08000
310
40C0A00040C0C00040C0E00040E0000040E0200040E0400040E0600040E0800040E0A00040E0C00040E0E00080000000800020008000400080006000800080008000A0008000C0008000E00080200000802020008020400080206000802080008020A0008020C0008020E00080400000804020008040400080406000804080
310
008040A0008040C0008040E00080600000806020008060400080606000806080008060A0008060C0008060E00080800000808020008080400080806000808080008080A0008080C0008080E00080A0000080A0200080A0400080A0600080A0800080A0A00080A0C00080A0E00080C0000080C0200080C0400080C0600080C0
310
800080C0A00080C0C00080C0E00080E0000080E0200080E0400080E0600080E0800080E0A00080E0C00080E0E000C0000000C0002000C0004000C0006000C0008000C000A000C000C000C000E000C0200000C0202000C0204000C0206000C0208000C020A000C020C000C020E000C0400000C0402000C0404000C0406000C0
310
408000C040A000C040C000C040E000C0600000C0602000C0604000C0606000C0608000C060A000C060C000C060E000C0800000C0802000C0804000C0806000C0808000C080A000C080C000C080E000C0A00000C0A02000C0A04000C0A06000C0A08000C0A0A000C0A0C000C0A0E000C0C00000C0C02000C0C04000C0C06000
310
C0C08000C0C0A000F0FBFF00A4A0A000808080000000FF0000FF000000FFFF00FF000000FF00FF00FFFF0000FFFFFF0000000000000000000000000000000000000000000000000000000000000000000000000000000000000000000000000000000000000000000000000000000000000000000000000000000000000000
310
00000000000000000000000000000000000000000000000000000000000000000000000000000000000000000000000000000000000000000000000000000000000000000000000000000000000000000000000000000000000000000000000000000000000000000000000000000000000000000000000000000000000000
310
00000000000000000000000000000000000000000000000000000000000000000000000000000000000000000000000000000000000000000000000000000000000000000000000000000000000000000000000000000000000000000000000000000000000000000000000000000000000000000000000000000000000000
310
000000000000000000000000000000000000000000000000000000000000000000000000000000000000000000000000000000000000000000000000000000000000000000000000000000000000000000000000000000003A3A3A3A3A3A3A3A3A3A3A3A3A3A3A3A3A3A3A3A3A3A003A3A00000000000000003A3A3A3A3A3A
310
3A3A3A3A3A3A3A3A3A3A3A3A3A3A3A3A3A3A00000000000000003A3A3A3A3A3A003A3A3A003A3A3A3A3A003A003A3A3A3A3A0000003A3A3A3A3A3A3A3A3A0000000000000000000000000000000000000000000000003A3A3A3A3A3A3A3A3A00000000000000000000000000000000000000000000003A3A3A3A003A3A3A3A
310
00000000000000000000000000000000000000000000000000000000000000000000000000000000000000000000000000000000000000000000000000000000000000000000000000000000000000000000000000000000000000000000000000000000000000000000000000000000000000000000000000000000000000
310
00000000000000000000000000000000000000000000000000000000000000000000000000000000000000000000000000000000000000000000000000000000000000000000000000000000000000000000000000000000000000000000000000000000000000000000000000000000000000000000000000000000000000
310
00000000000000000000000000000000000000000000000000000000000000000000000000000000000000000000000000000000000000000000000000000000000000000000000000000000000000000000000000000000000000000000000000000000000000000000000000000000000000000000000000000000000000
310
0000000000000000000000000000000000000000000000000000000000000000000000000000000000000000000000000000000000000000
102
{BLKREFS
331
19A4D
102
}
1001
ACAD
1000
DesignCenter Data
1002
{
1070
     1
1070
     4
1002
}
  0
BLOCK_RECORD
  5
18FB0
102
{ACAD_XDICTIONARY
360
1900A
102
}
330
1
100
AcDbSymbolTableRecord
100
AcDbBlockTableRecord
  2
A$C77D25CEF
340
0
1001
ACAD
1000
DesignCenter Data
1002
{
1070
     1
1070
     4
1002
}
  0
BLOCK_RECORD
  5
19154
102
{ACAD_XDICTIONARY
360
1915B
102
}
330
1
100
AcDbSymbolTableRecord
100
AcDbBlockTableRecord
  2
A$C60DA4394
340
0
1001
ACAD
1000
DesignCenter Data
1002
{
1070
     1
1070
     4
1002
}
  0
BLOCK_RECORD
  5
193C1
102
{ACAD_XDICTIONARY
360
1941B
102
}
330
1
100
AcDbSymbolTableRecord
100
AcDbBlockTableRecord
  2
A$C4C4D1F6A
340
0
1001
ACAD
1000
DesignCenter Data
1002
{
1070
     1
1070
     4
1002
}
  0
BLOCK_RECORD
  5
1994F
102
{ACAD_XDICTIONARY
360
19956
102
}
330
1
100
AcDbSymbolTableRecord
100
AcDbBlockTableRecord
  2
A$C5F976A2B
340
0
1001
ACAD
1000
DesignCenter Data
1002
{
1070
     1
1070
     4
1002
}
  0
BLOCK_RECORD
  5
19A34
330
1
100
AcDbSymbolTableRecord
100
AcDbBlockTableRecord
  2
*D16
340
0
  0
BLOCK_RECORD
  5
19A40
330
1
100
AcDbSymbolTableRecord
100
AcDbBlockTableRecord
  2
*D17
340
0
  0
BLOCK_RECORD
  5
19A4C
102
{ACAD_XDICTIONARY
360
19A54
102
}
330
1
100
AcDbSymbolTableRecord
100
AcDbBlockTableRecord
  2
A$C127578BA
340
0
1001
ACAD
1000
DesignCenter Data
1002
{
1070
     1
1070
     4
1002
}
  0
BLOCK_RECORD
  5
19BB1
330
1
100
AcDbSymbolTableRecord
100
AcDbBlockTableRecord
  2
*D19
340
0
  0
BLOCK_RECORD
  5
19BBD
330
1
100
AcDbSymbolTableRecord
100
AcDbBlockTableRecord
  2
*D20
340
0
  0
BLOCK_RECORD
  5
19BCB
330
1
100
AcDbSymbolTableRecord
100
AcDbBlockTableRecord
  2
*D21
340
0
  0
BLOCK_RECORD
  5
19BD7
330
1
100
AcDbSymbolTableRecord
100
AcDbBlockTableRecord
  2
*D22
340
0
  0
BLOCK_RECORD
  5
19BE5
330
1
100
AcDbSymbolTableRecord
100
AcDbBlockTableRecord
  2
*D23
340
0
  0
BLOCK_RECORD
  5
19BF1
330
1
100
AcDbSymbolTableRecord
100
AcDbBlockTableRecord
  2
*D24
340
0
  0
BLOCK_RECORD
  5
19BF9
330
1
100
AcDbSymbolTableRecord
100
AcDbBlockTableRecord
  2
*D25
340
0
  0
BLOCK_RECORD
  5
19C04
330
1
100
AcDbSymbolTableRecord
100
AcDbBlockTableRecord
  2
*D26
340
0
  0
BLOCK_RECORD
  5
19C0F
102
{ACAD_XDICTIONARY
360
19C32
102
}
330
1
100
AcDbSymbolTableRecord
100
AcDbBlockTableRecord
  2
A$C31B1374A
340
0
1001
ACAD
1000
DesignCenter Data
1002
{
1070
     1
1070
     4
1002
}
  0
BLOCK_RECORD
  5
1DD18
102
{ACAD_XDICTIONARY
360
1DD72
102
}
330
1
100
AcDbSymbolTableRecord
100
AcDbBlockTableRecord
  2
A$C79957CDD
340
0
1001
ACAD
1000
DesignCenter Data
1002
{
1070
     1
1070
     4
1002
}
  0
BLOCK_RECORD
  5
1E101
102
{ACAD_XDICTIONARY
360
1E15B
102
}
330
1
100
AcDbSymbolTableRecord
100
AcDbBlockTableRecord
  2
A$C56390592
340
0
1001
ACAD
1000
DesignCenter Data
1002
{
1070
     1
1070
     4
1002
}
  0
BLOCK_RECORD
  5
1EBED
330
1
100
AcDbSymbolTableRecord
100
AcDbBlockTableRecord
  2
*D30
340
0
  0
BLOCK_RECORD
  5
1EBF9
330
1
100
AcDbSymbolTableRecord
100
AcDbBlockTableRecord
  2
*D31
340
0
  0
BLOCK_RECORD
  5
1EC0E
330
1
100
AcDbSymbolTableRecord
100
AcDbBlockTableRecord
  2
*D32
340
0
  0
BLOCK_RECORD
  5
1EC1A
330
1
100
AcDbSymbolTableRecord
100
AcDbBlockTableRecord
  2
*D33
340
0
  0
BLOCK_RECORD
  5
1EC94
330
1
100
AcDbSymbolTableRecord
100
AcDbBlockTableRecord
  2
*D34
340
0
  0
ENDTAB
  0
ENDSEC
  0
SECTION
  2
BLOCKS
  0
BLOCK
  5
20
330
1F
100
AcDbEntity
  8
0
100
AcDbBlockBegin
  2
*Model_Space
 70
     0
 10
0.0
 20
0.0
 30
0.0
  3
*Model_Space
  1

  0
ENDBLK
  5
21
330
1F
100
AcDbEntity
  8
0
100
AcDbBlockEnd
  0
BLOCK
  5
52
330
50
100
AcDbEntity
 67
     1
  8
0
100
AcDbBlockBegin
  2
*Paper_Space
 70
     0
 10
0.0
 20
0.0
 30
0.0
  3
*Paper_Space
  1

  0
ENDBLK
  5
53
330
50
100
AcDbEntity
 67
     1
  8
0
100
AcDbBlockEnd
  0
BLOCK
  5
57
330
55
100
AcDbEntity
 67
     1
  8
0
100
AcDbBlockBegin
  2
*Paper_Space0
 70
     0
 10
0.0
 20
0.0
 30
0.0
  3
*Paper_Space0
  1

  0
ENDBLK
  5
58
330
55
100
AcDbEntity
 67
     1
  8
0
100
AcDbBlockEnd
  0
BLOCK
  5
BFC8
330
BFC6
100
AcDbEntity
  8
0
100
AcDbBlockBegin
  2
A$C1F725388
 70
     0
 10
0.0
 20
0.0
 30
0.0
  3
A$C1F725388
  1

  0
REGION
  5
BFC7
330
BFC6
100
AcDbEntity
  8
0
100
AcDbModelerGeometry
 70
     1
  1
koo mi n o          
  1
ni ^ *+0;:,4 ^ *+0\^ [ nh ^ LR iqoqjqhook QK mk Y-6 Y:= mi njejleln mono 
  1
n fqfffffffffffffffj:rooh n:rono 
  1
=0;& {rn {n {rn {rn |
  1
3*2/ {rn {rn {m {o |
  1
,7:33 {rn {rn {rn {l {rn {n |
  1
9><: {rn {rn {k {m {rn {j 90-(>-; ;0*=3: 0*+ |
  1
300/ {rn {rn {i {l |
  1
/3>1:r,*-9><: {rn mnjqfoooooooooonki rmmgqioooooooooomng o o o n n o o 90-(>-;@) V V V V |
  1
<0:;8: {rn {h {g {rn {f 90-(>-; {k {rn |
  1
<0:;8: {rn {no {i {rn {nn 90-(>-; {k {rn |
  1
<0:;8: {rn {i {no {rn {nm 90-(>-; {k {rn |
  1
:;8: {rn {nl {nk {i {nj 90-(>-; |
  1
<0:;8: {rn {g {h {rn {ni 90-(>-; {k {rn |
  1
:;8: {rn {nk {nh {h {ng 90-(>-; |
  1
:;8: {rn {nf {nl {g {mo 90-(>-; |
  1
):-+:' {rn {f {mn |
  1
):-+:' {rn {f {mm |
  1
,+->687+r<*-): {rn kjhqnffffffffffgfn rkgmqioooooooooomng o rlqjgoighgommjjinol:ronj n o V V |
  1
:;8: {rn {nh {nf {no {ml 90-(>-; |
  1
):-+:' {rn {nn {mk |
  1
,+->687+r<*-): {rn kjhqnffffffffffhof mjqlfffffffffffili o rn rhqjlgmfonnoonngggi:ronj o V V |
  1
):-+:' {rn {ni {mj |
  1
,+->687+r<*-): {rn rmjqlfffffffffffili rkgmqioooooooooomng o n o o V V |
  1
/061+ {rn kjhqnffffffffffgfn rkgmqioooooooooomng o |
  1
/061+ {rn kjhqnffffffffffhof mjqlfffffffffffili o |
  1
,+->687+r<*-): {rn rmjqlfffffffffffili mjqlffffffffffjffg o o rn o V V |
  1
/061+ {rn rmjqlfffffffffffili mjqlffffffffffjffg o |
  1
/061+ {rn rmjqlfffffffffffili rkgmqioooooooooomng o |
  0
ENDBLK
  5
BFC9
330
BFC6
100
AcDbEntity
  8
0
100
AcDbBlockEnd
  0
BLOCK
  5
C7F5
330
C7CE
100
AcDbEntity
  8
0
100
AcDbBlockBegin
  2
A$C7F795F7F
 70
     0
 10
0.0
 20
0.0
 30
0.0
  3
A$C7F795F7F
  1

  0
MTEXT
  5
C7CF
330
C7CE
100
AcDbEntity
  8
0
100
AcDbMText
 10
1497.751756950391
 20
209.2740879933481
 30
0.0
 40
20.0
 41
398.4375
 71
     1
 72
     5
  1
{\fSimSun|b0|i0|c134|p2;1.5mm SUS304 STAINLESS STEEL}
  7
Roman
 73
     1
 44
1.0
1001
ACAD
1000
MTEXTBEGIN
1070
    73
1070
     1
1070
    44
1040
1.0
1070
    74
1070
     0
1000
MTEXTEND
  0
MTEXT
  5
C7D0
330
C7CE
100
AcDbEntity
  8
0
100
AcDbMText
 10
1416.288483169439
 20
82.75223050551721
 30
0.0
 40
20.389755375
 41
103.278356829499
 71
     1
 72
     5
  1
{\fSimSun|b0|i0|c134|p54;批 准}
 73
     1
 44
1.0
1001
ACAD
1000
MTEXTBEGIN
1070
    73
1070
     1
1070
    44
1040
1.0
1070
    74
1070
     0
1000
MTEXTEND
  0
LINE
  5
C7D1
330
C7CE
100
AcDbEntity
  8
0
100
AcDbLine
 10
1505.973039160235
 20
119.3389540365897
 30
0.0
 11
1505.973039160235
 21
50.71484043786767
 31
0.0
  0
LINE
  5
C7D2
330
C7CE
100
AcDbEntity
  8
0
100
AcDbLine
 10
1861.837020993014
 20
119.3389540365897
 30
0.0
 11
1861.837020993014
 21
50.71484043786767
 31
0.0
  0
MTEXT
  5
C7D3
330
C7CE
100
AcDbEntity
  8
0
100
AcDbMText
 10
1768.018468380309
 20
80.61985548111261
 30
0.0
 40
20.389755375
 41
147.3864392174451
 71
     1
 72
     5
  1
{\fSimSun|b0|i0|c134|p54;日 期}
 73
     1
 44
1.0
1001
ACAD
1000
MTEXTBEGIN
1070
    73
1070
     1
1070
    44
1040
1.0
1070
    74
1070
     0
1000
MTEXTEND
  0
LINE
  5
C7D4
330
C7CE
100
AcDbEntity
  8
0
100
AcDbLine
 10
1749.670066781735
 20
119.3389540365897
 30
0.0
 11
1749.670066781735
 21
50.71484043786767
 31
0.0
  0
LINE
  5
C7D5
330
C7CE
100
AcDbEntity
  8
0
100
AcDbLine
 10
1402.694682330752
 20
85.02689723722141
 30
0.0
 11
2052.618134908859
 21
85.0268972372287
 31
0.0
  0
LINE
  5
C7D6
330
C7CE
100
AcDbEntity
  8
Title Block
100
AcDbLine
 10
1096.848351705746
 20
119.3389540365897
 30
0.0
 11
2052.618134908859
 21
119.3389540365897
 31
0.0
  0
LINE
  5
C7D7
330
C7CE
100
AcDbEntity
  8
Title Block
100
AcDbLine
 10
1096.848351705746
 20
50.71484043786767
 30
0.0
 11
1096.848351705746
 21
223.6874007380684
 31
0.0
  0
LINE
  5
C7D8
330
C7CE
100
AcDbEntity
  8
Title Block
100
AcDbLine
 10
1402.694682330752
 20
50.71484043786767
 30
0.0
 11
1402.694682330752
 21
223.6874007380684
 31
0.0
  0
LINE
  5
C7D9
330
C7CE
100
AcDbEntity
  8
Title Block
100
AcDbLine
 10
1096.848351705746
 20
223.6874007380684
 30
0.0
 11
2052.618134908859
 21
223.6874007380684
 31
0.0
  0
LINE
  5
C7DA
330
C7CE
100
AcDbEntity
  8
Title Block
100
AcDbLine
 10
1402.694682330752
 20
177.6301039998288
 30
0.0
 11
2052.618134908859
 21
177.6301039998288
 31
0.0
  0
MTEXT
  5
C7DB
330
C7CE
100
AcDbEntity
  8
0
100
AcDbMText
 10
1104.29060954554
 20
203.4580375904552
 30
0.0
 40
30.58463306250001
 41
630.8080569140626
 71
     1
 72
     5
  1
{\fSimSun|b0|i0|c134|p54;\H1.667x;东原厨具}
 73
     1
 44
1.0
1001
ACAD
1000
MTEXTBEGIN
1070
    73
1070
     1
1070
    44
1040
1.0
1070
    74
1070
     0
1000
MTEXTEND
  0
MTEXT
  5
C7DC
330
C7CE
100
AcDbEntity
  8
0
100
AcDbMText
 10
1405.383712549897
 20
175.1150346902941
 30
0.0
 40
15.29231653125
 41
324.9617262890617
 71
     1
 72
     5
  1
{\fSimSun|b0|i0|c134|p54;产品编号:}
 73
     1
 44
1.0
1001
ACAD
1000
MTEXTBEGIN
1070
    73
1070
     1
1070
    44
1040
1.0
1070
    74
1070
     0
1000
MTEXTEND
  0
MTEXT
  5
C7DD
330
C7CE
100
AcDbEntity
  8
0
100
AcDbMText
 10
1405.383712549897
 20
219.9912350522791
 30
0.0
 40
20.389755375
 41
324.9617262890617
 71
     1
 72
     5
  1
{\fSimSun|b0|i0|c134|p54;\H0.75x;材 料:}
 73
     1
 44
1.0
1001
ACAD
1000
MTEXTBEGIN
1070
    73
1070
     1
1070
    44
1040
1.0
1070
    74
1070
     0
1000
MTEXTEND
  0
MTEXT
  5
C7DE
330
C7CE
100
AcDbEntity
  8
0
100
AcDbMText
 10
1416.288483169439
 20
115.7357166109577
 30
0.0
 40
20.389755375
 41
103.278356829499
 71
     1
 72
     5
  1
{\fSimSun|b0|i0|c134|p54;审 核}
 73
     1
 44
1.0
1001
ACAD
1000
MTEXTBEGIN
1070
    73
1070
     1
1070
    44
1040
1.0
1070
    74
1070
     0
1000
MTEXTEND
  0
MTEXT
  5
C7DF
330
C7CE
100
AcDbEntity
  8
0
100
AcDbMText
 10
1768.018468380309
 20
114.7048109219977
 30
0.0
 40
20.389755375
 41
147.3864392174451
 71
     1
 72
     5
  1
{\fSimSun|b0|i0|c134|p54;日 期}
 73
     1
 44
1.0
1001
ACAD
1000
MTEXTBEGIN
1070
    73
1070
     1
1070
    44
1040
1.0
1070
    74
1070
     0
1000
MTEXTEND
  0
MTEXT
  5
C7E0
330
C7CE
100
AcDbEntity
  8
0
100
AcDbMText
 10
1868.949049613627
 20
111.7798907017495
 30
0.0
 40
15.29231653125
 41
190.7811139158457
 71
     1
 72
     5
  1
   {\fSimSun|b0|i0|c134|p54;年   月   日}
 73
     1
 44
1.0
1001
ACAD
1000
MTEXTBEGIN
1070
    73
1070
     1
1070
    44
1040
1.0
1070
    74
1070
     0
1000
MTEXTEND
  0
MTEXT
  5
C7E1
330
C7CE
100
AcDbEntity
  8
0
100
AcDbMText
 10
1867.637501965408
 20
79.16304815579497
 30
0.0
 40
15.29231653125
 41
190.7811139158457
 71
     1
 72
     5
  1
   {\fSimSun|b0|i0|c134|p54;年   月   日}
 73
     1
 44
1.0
1001
ACAD
1000
MTEXTBEGIN
1070
    73
1070
     1
1070
    44
1040
1.0
1070
    74
1070
     0
1000
MTEXTEND
  0
LINE
  5
C7E2
330
C7CE
100
AcDbEntity
  8
Title Block
100
AcDbLine
 10
82.7453319888591
 20
50.71484043786767
 30
0.0
 11
2052.618134908859
 21
50.71484043786767
 31
0.0
  0
LINE
  5
C7E3
330
C7CE
100
AcDbEntity
  8
Title Block
100
AcDbLine
 10
2052.618134908859
 20
50.71484043786767
 30
0.0
 11
2052.618134908859
 21
1283.887245517864
 31
0.0
  0
LINE
  5
C7E4
330
C7CE
100
AcDbEntity
  8
Title Block
100
AcDbLine
 10
-0.0000025511399144
 20
-0.0000420221331296
 30
0.0
 11
2135.363469448872
 21
-0.0000420221331296
 31
0.0
  0
LINE
  5
C7E5
330
C7CE
100
AcDbEntity
  8
Title Block
100
AcDbLine
 10
2135.363469448872
 20
-0.0000420221331296
 30
0.0
 11
2135.363469448872
 21
1334.602127977865
 31
0.0
  0
MTEXT
  5
C7E6
330
C7CE
100
AcDbEntity
  8
0
100
AcDbMText
 10
1520.145985626383
 20
171.9854297997735
 30
0.0
 40
35.0
 41
649.6259201046301
 71
     1
 72
     5
  1
{\fSimSun|b0|i0|c134|p2;HA手工盆(440x360x200)}
 73
     1
 44
1.0
1001
ACAD
1000
MTEXTBEGIN
1070
    73
1070
     1
1070
    44
1040
1.0
1070
    74
1070
     0
1000
MTEXTEND
  0
LINE
  5
C7E7
330
C7CE
100
AcDbEntity
  8
Title Block
100
AcDbLine
 10
2052.618134908859
 20
1283.887245517864
 30
0.0
 11
82.7453319888591
 21
1283.887245517864
 31
0.0
  0
LINE
  5
C7E8
330
C7CE
100
AcDbEntity
  8
Title Block
100
AcDbLine
 10
2135.363469448872
 20
1334.602127977865
 30
0.0
 11
-0.0000025511399144
 21
1334.602127977865
 31
0.0
  0
LINE
  5
C7E9
330
C7CE
100
AcDbEntity
  8
Title Block
100
AcDbLine
 10
82.7453319888591
 20
1283.887245517864
 30
0.0
 11
82.7453319888591
 21
50.71484043786767
 31
0.0
  0
LINE
  5
C7EA
330
C7CE
100
AcDbEntity
  8
Title Block
100
AcDbLine
 10
-0.0000025511399144
 20
1334.602127977865
 30
0.0
 11
-0.0000025511399144
 21
-0.0000420221331296
 31
0.0
  0
MTEXT
  5
C7EB
330
C7CE
100
AcDbEntity
  8
0
100
AcDbMText
 10
1795.778795871272
 20
1243.060200269043
 30
0.0
 40
15.29231653125
 41
251.320196930144
 71
     1
 72
     5
  1
   {\fSimSun|b0|i0|c134|p18;2007 \fSimSun|b0|i0|c134|p54;年 4 月 19 日}
 73
     1
 44
1.0
1001
ACAD
1000
MTEXTBEGIN
1070
    73
1070
     1
1070
    44
1040
1.0
1070
    74
1070
     0
1000
MTEXTEND
  0
MTEXT
  5
C7EC
330
C7CE
100
AcDbEntity
  8
0
100
AcDbMText
 10
1696.17970667468
 20
1246.962963421407
 30
0.0
 40
20.389755375
 41
147.3864392174451
 71
     1
 72
     5
  1
{\fSimSun|b0|i0|c134|p54;日 期}
 73
     1
 44
1.0
1001
ACAD
1000
MTEXTBEGIN
1070
    73
1070
     1
1070
    44
1040
1.0
1070
    74
1070
     0
1000
MTEXTEND
  0
MTEXT
  5
C7ED
330
C7CE
100
AcDbEntity
  8
0
100
AcDbMText
 10
1481.044004623443
 20
1249.069513829512
 30
0.0
 40
30.58463306250001
 41
355.9985593180896
 71
     1
 72
     5
  1
{\fNSimSun|b0|i0|c134|p49;Fred}
 73
     1
 44
1.0
1001
ACAD
1000
MTEXTBEGIN
1070
    73
1070
     1
1070
    44
1040
1.0
1070
    74
1070
     0
1000
MTEXTEND
  0
MTEXT
  5
C7EE
330
C7CE
100
AcDbEntity
  8
0
100
AcDbMText
 10
1336.695267026764
 20
1244.751620603492
 30
0.0
 40
20.389755375
 41
147.3864392174451
 71
     1
 72
     5
  1
{\fSimSun|b0|i0|c134|p54;设 计}
 73
     1
 44
1.0
1001
ACAD
1000
MTEXTBEGIN
1070
    73
1070
     1
1070
    44
1040
1.0
1070
    74
1070
     0
1000
MTEXTEND
  0
LINE
  5
C7EF
330
C7CE
100
AcDbEntity
  8
Title Block
100
AcDbLine
 10
1318.586941408881
 20
1250.522191267868
 30
0.0
 11
2052.618134908859
 21
1250.522191267868
 31
0.0
  0
LINE
  5
C7F0
330
C7CE
100
AcDbEntity
  8
Title Block
100
AcDbLine
 10
1318.586941408881
 20
1217.157137017864
 30
0.0
 11
2052.618134908859
 21
1217.157137017864
 31
0.0
  0
LINE
  5
C7F1
330
C7CE
100
AcDbEntity
  8
Title Block
100
AcDbLine
 10
1318.586941408881
 20
1283.887245517864
 30
0.0
 11
1318.586941408881
 21
1217.157137017864
 31
0.0
  0
LINE
  5
C7F2
330
C7CE
100
AcDbEntity
  8
Title Block
100
AcDbLine
 10
1436.03193236886
 20
1217.157137017864
 30
0.0
 11
1436.03193236886
 21
1250.522191267868
 31
0.0
  0
LINE
  5
C7F3
330
C7CE
100
AcDbEntity
  8
Title Block
100
AcDbLine
 10
1676.893627301382
 20
1217.157137017864
 30
0.0
 11
1676.893627301382
 21
1250.522191267868
 31
0.0
  0
LINE
  5
C7F4
330
C7CE
100
AcDbEntity
  8
Title Block
100
AcDbLine
 10
1804.700942800016
 20
1217.157137017864
 30
0.0
 11
1804.700942800016
 21
1250.522191267868
 31
0.0
  0
ENDBLK
  5
C7F6
330
C7CE
100
AcDbEntity
  8
0
100
AcDbBlockEnd
  0
BLOCK
  5
FB9E
330
FB9D
100
AcDbEntity
  8
0
100
AcDbBlockBegin
  2
*D3
 70
     1
 10
0.0
 20
0.0
 30
0.0
  3
*D3
  1

  0
LINE
  5
FB9F
330
FB9D
100
AcDbEntity
  8
0
 62
     6
370
    15
100
AcDbLine
 10
-11387.22372713419
 20
12833.43002602679
 30
0.0
 11
-11387.22372713419
 21
12762.55624931248
 31
0.0
  0
LINE
  5
FBA0
330
FB9D
100
AcDbEntity
  8
0
 62
     6
370
    15
100
AcDbLine
 10
-11006.22372713419
 20
12833.43002602679
 30
0.0
 11
-11006.22372713419
 21
12762.55624931248
 31
0.0
  0
LINE
  5
FBA1
330
FB9D
100
AcDbEntity
  8
0
 62
     6
370
    15
100
AcDbLine
 10
-11372.22372713419
 20
12763.80624931248
 30
0.0
 11
-11021.22372713419
 21
12763.80624931248
 31
0.0
  0
SOLID
  5
FBA2
330
FB9D
100
AcDbEntity
  8
0
 62
     6
100
AcDbTrace
 10
-11372.22372713419
 20
12766.30624931248
 30
0.0
 11
-11372.22372713419
 21
12761.30624931248
 31
0.0
 12
-11387.22372713419
 22
12763.80624931248
 32
0.0
 13
-11387.22372713419
 23
12763.80624931248
 33
0.0
  0
SOLID
  5
FBA3
330
FB9D
100
AcDbEntity
  8
0
 62
     6
100
AcDbTrace
 10
-11021.22372713419
 20
12766.30624931248
 30
0.0
 11
-11021.22372713419
 21
12761.30624931248
 31
0.0
 12
-11006.22372713419
 22
12763.80624931248
 32
0.0
 13
-11006.22372713419
 23
12763.80624931248
 33
0.0
  0
MTEXT
  5
FBA4
330
FB9D
100
AcDbEntity
  8
0
 62
     0
100
AcDbMText
 10
-11196.72372713419
 20
12774.43602580851
 30
0.0
 40
15.0
 41
0.0
 71
     5
 72
     1
  1
381
 73
     1
 44
1.0
1001
ACAD
1000
MTEXTBEGIN
1070
    73
1070
     1
1070
    44
1040
1.0
1070
    74
1070
     0
1000
MTEXTEND
  0
POINT
  5
FBA5
330
FB9D
100
AcDbEntity
  8
Defpoints
 62
     0
100
AcDbPoint
 10
-11387.22372713419
 20
12833.43002602679
 30
0.0
  0
POINT
  5
FBA6
330
FB9D
100
AcDbEntity
  8
Defpoints
 62
     0
100
AcDbPoint
 10
-11006.22372713419
 20
12833.43002602679
 30
0.0
  0
POINT
  5
FBA7
330
FB9D
100
AcDbEntity
  8
Defpoints
 62
     0
100
AcDbPoint
 10
-11006.22372713419
 20
12763.80624931248
 30
0.0
  0
ENDBLK
  5
FBA8
330
FB9D
100
AcDbEntity
  8
0
100
AcDbBlockEnd
  0
BLOCK
  5
FBAA
330
FBA9
100
AcDbEntity
  8
0
100
AcDbBlockBegin
  2
*D4
 70
     1
 10
0.0
 20
0.0
 30
0.0
  3
*D4
  1

  0
LINE
  5
FBAB
330
FBA9
100
AcDbEntity
  8
0
 62
     6
370
    15
100
AcDbLine
 10
-11361.82372713419
 20
12858.83002602679
 30
0.0
 11
-11361.82372713419
 21
12786.63096593885
 31
0.0
  0
LINE
  5
FBAC
330
FBA9
100
AcDbEntity
  8
0
 62
     6
370
    15
100
AcDbLine
 10
-11031.62372713419
 20
12858.83002602679
 30
0.0
 11
-11031.62372713419
 21
12786.63096593885
 31
0.0
  0
LINE
  5
FBAD
330
FBA9
100
AcDbEntity
  8
0
 62
     6
370
    15
100
AcDbLine
 10
-11346.82372713419
 20
12787.88096593885
 30
0.0
 11
-11046.62372713419
 21
12787.88096593885
 31
0.0
  0
SOLID
  5
FBAE
330
FBA9
100
AcDbEntity
  8
0
 62
     6
100
AcDbTrace
 10
-11346.82372713419
 20
12790.38096593885
 30
0.0
 11
-11346.82372713419
 21
12785.38096593885
 31
0.0
 12
-11361.82372713419
 22
12787.88096593885
 32
0.0
 13
-11361.82372713419
 23
12787.88096593885
 33
0.0
  0
SOLID
  5
FBAF
330
FBA9
100
AcDbEntity
  8
0
 62
     6
100
AcDbTrace
 10
-11046.62372713419
 20
12790.38096593885
 30
0.0
 11
-11046.62372713419
 21
12785.38096593885
 31
0.0
 12
-11031.62372713419
 22
12787.88096593885
 32
0.0
 13
-11031.62372713419
 23
12787.88096593885
 33
0.0
  0
MTEXT
  5
FBB0
330
FBA9
100
AcDbEntity
  8
0
 62
     0
100
AcDbMText
 10
-11196.72372713419
 20
12800.22487365334
 30
0.0
 40
15.0
 41
0.0
 71
     5
 72
     1
  1
330,2
 73
     1
 44
1.0
1001
ACAD
1000
MTEXTBEGIN
1070
    73
1070
     1
1070
    44
1040
1.0
1070
    74
1070
     0
1000
MTEXTEND
  0
POINT
  5
FBB1
330
FBA9
100
AcDbEntity
  8
Defpoints
 62
     0
100
AcDbPoint
 10
-11361.82372713419
 20
12858.83002602679
 30
0.0
  0
POINT
  5
FBB2
330
FBA9
100
AcDbEntity
  8
Defpoints
 62
     0
100
AcDbPoint
 10
-11031.62372713419
 20
12858.83002602679
 30
0.0
  0
POINT
  5
FBB3
330
FBA9
100
AcDbEntity
  8
Defpoints
 62
     0
100
AcDbPoint
 10
-11031.62372713419
 20
12787.88096593885
 30
0.0
  0
ENDBLK
  5
FBB4
330
FBA9
100
AcDbEntity
  8
0
100
AcDbBlockEnd
  0
BLOCK
  5
FBB6
330
FBB5
100
AcDbEntity
  8
0
100
AcDbBlockBegin
  2
*D5
 70
     1
 10
0.0
 20
0.0
 30
0.0
  3
*D5
  1

  0
LINE
  5
FBB7
330
FBB5
100
AcDbEntity
  8
0
 62
     6
370
    15
100
AcDbLine
 10
-11031.62372713419
 20
13316.03002602679
 30
0.0
 11
-10962.65017358455
 21
13316.03002602679
 31
0.0
  0
LINE
  5
FBB8
330
FBB5
100
AcDbEntity
  8
0
 62
     6
370
    15
100
AcDbLine
 10
-11031.62372713419
 20
12858.83002602679
 30
0.0
 11
-10962.65017358455
 21
12858.83002602679
 31
0.0
  0
LINE
  5
FBB9
330
FBB5
100
AcDbEntity
  8
0
 62
     6
370
    15
100
AcDbLine
 10
-10963.90017358455
 20
13301.03002602679
 30
0.0
 11
-10963.90017358455
 21
12873.83002602679
 31
0.0
  0
SOLID
  5
FBBA
330
FBB5
100
AcDbEntity
  8
0
 62
     6
100
AcDbTrace
 10
-10966.40017358455
 20
13301.03002602679
 30
0.0
 11
-10961.40017358455
 21
13301.03002602679
 31
0.0
 12
-10963.90017358455
 22
13316.03002602679
 32
0.0
 13
-10963.90017358455
 23
13316.03002602679
 33
0.0
  0
SOLID
  5
FBBB
330
FBB5
100
AcDbEntity
  8
0
 62
     6
100
AcDbTrace
 10
-10966.40017358455
 20
12873.83002602679
 30
0.0
 11
-10961.40017358455
 21
12873.83002602679
 31
0.0
 12
-10963.90017358455
 22
12858.83002602679
 32
0.0
 13
-10963.90017358455
 23
12858.83002602679
 33
0.0
  0
MTEXT
  5
FBBC
330
FBB5
100
AcDbEntity
  8
0
 62
     0
100
AcDbMText
 10
-10976.24408129904
 20
13087.43002602679
 30
0.0
 40
15.0
 41
0.0
 71
     5
 72
     1
  1
457,2
 11
0.0000000000000001
 21
1.0
 31
0.0
 73
     1
 44
1.0
1001
ACAD
1000
MTEXTBEGIN
1070
    73
1070
     1
1070
    44
1040
1.0
1070
    74
1070
     0
1000
MTEXTEND
  0
POINT
  5
FBBD
330
FBB5
100
AcDbEntity
  8
Defpoints
 62
     0
100
AcDbPoint
 10
-11031.62372713419
 20
13316.03002602679
 30
0.0
  0
POINT
  5
FBBE
330
FBB5
100
AcDbEntity
  8
Defpoints
 62
     0
100
AcDbPoint
 10
-11031.62372713419
 20
12858.83002602679
 30
0.0
  0
POINT
  5
FBBF
330
FBB5
100
AcDbEntity
  8
Defpoints
 62
     0
100
AcDbPoint
 10
-10963.90017358455
 20
12858.83002602679
 30
0.0
  0
ENDBLK
  5
FBC0
330
FBB5
100
AcDbEntity
  8
0
100
AcDbBlockEnd
  0
BLOCK
  5
FBC2
330
FBC1
100
AcDbEntity
  8
0
100
AcDbBlockBegin
  2
*D6
 70
     1
 10
0.0
 20
0.0
 30
0.0
  3
*D6
  1

  0
LINE
  5
FBC3
330
FBC1
100
AcDbEntity
  8
0
 62
     6
370
    15
100
AcDbLine
 10
-11006.22372713419
 20
13341.43002602679
 30
0.0
 11
-10920.60672735
 21
13341.43002602679
 31
0.0
  0
LINE
  5
FBC4
330
FBC1
100
AcDbEntity
  8
0
 62
     6
370
    15
100
AcDbLine
 10
-11006.22372713419
 20
12833.43002602679
 30
0.0
 11
-10920.60672735
 21
12833.43002602679
 31
0.0
  0
LINE
  5
FBC5
330
FBC1
100
AcDbEntity
  8
0
 62
     6
370
    15
100
AcDbLine
 10
-10921.85672735
 20
13326.43002602679
 30
0.0
 11
-10921.85672735
 21
12848.43002602679
 31
0.0
  0
SOLID
  5
FBC6
330
FBC1
100
AcDbEntity
  8
0
 62
     6
100
AcDbTrace
 10
-10924.35672735
 20
13326.43002602679
 30
0.0
 11
-10919.35672735
 21
13326.43002602679
 31
0.0
 12
-10921.85672735
 22
13341.43002602679
 32
0.0
 13
-10921.85672735
 23
13341.43002602679
 33
0.0
  0
SOLID
  5
FBC7
330
FBC1
100
AcDbEntity
  8
0
 62
     6
100
AcDbTrace
 10
-10924.35672735
 20
12848.43002602679
 30
0.0
 11
-10919.35672735
 21
12848.43002602679
 31
0.0
 12
-10921.85672735
 22
12833.43002602679
 32
0.0
 13
-10921.85672735
 23
12833.43002602679
 33
0.0
  0
MTEXT
  5
FBC8
330
FBC1
100
AcDbEntity
  8
0
 62
     0
100
AcDbMText
 10
-10932.48650384604
 20
13087.43002602679
 30
0.0
 40
15.0
 41
0.0
 71
     5
 72
     1
  1
508
 11
0.0000000000000001
 21
1.0
 31
0.0
 73
     1
 44
1.0
1001
ACAD
1000
MTEXTBEGIN
1070
    73
1070
     1
1070
    44
1040
1.0
1070
    74
1070
     0
1000
MTEXTEND
  0
POINT
  5
FBC9
330
FBC1
100
AcDbEntity
  8
Defpoints
 62
     0
100
AcDbPoint
 10
-11006.22372713419
 20
13341.43002602679
 30
0.0
  0
POINT
  5
FBCA
330
FBC1
100
AcDbEntity
  8
Defpoints
 62
     0
100
AcDbPoint
 10
-11006.22372713419
 20
12833.43002602679
 30
0.0
  0
POINT
  5
FBCB
330
FBC1
100
AcDbEntity
  8
Defpoints
 62
     0
100
AcDbPoint
 10
-10921.85672735
 20
12833.43002602679
 30
0.0
  0
ENDBLK
  5
FBCC
330
FBC1
100
AcDbEntity
  8
0
100
AcDbBlockEnd
  0
BLOCK
  5
FBCE
330
FBCD
100
AcDbEntity
  8
0
100
AcDbBlockBegin
  2
*D7
 70
     1
 10
0.0
 20
0.0
 30
0.0
  3
*D7
  1

  0
LINE
  5
FBCF
330
FBCD
100
AcDbEntity
  8
0
 62
     6
370
    15
100
AcDbLine
 10
-11031.62372713418
 20
13439.10919830743
 30
0.0
 11
-10951.32052941362
 21
13439.10919830743
 31
0.0
  0
LINE
  5
FBD0
330
FBCD
100
AcDbEntity
  8
0
 62
     6
370
    15
100
AcDbLine
 10
-11006.22372713419
 20
13693.10919830743
 30
0.0
 11
-10951.32052941362
 21
13693.10919830743
 31
0.0
  0
LINE
  5
FBD1
330
FBCD
100
AcDbEntity
  8
0
 62
     6
370
    15
100
AcDbLine
 10
-10952.57052941362
 20
13454.10919830743
 30
0.0
 11
-10952.57052941362
 21
13678.10919830743
 31
0.0
  0
SOLID
  5
FBD2
330
FBCD
100
AcDbEntity
  8
0
 62
     6
100
AcDbTrace
 10
-10955.07052941362
 20
13454.10919830743
 30
0.0
 11
-10950.07052941362
 21
13454.10919830743
 31
0.0
 12
-10952.57052941362
 22
13439.10919830743
 32
0.0
 13
-10952.57052941362
 23
13439.10919830743
 33
0.0
  0
SOLID
  5
FBD3
330
FBCD
100
AcDbEntity
  8
0
 62
     6
100
AcDbTrace
 10
-10955.07052941362
 20
13678.10919830743
 30
0.0
 11
-10950.07052941362
 21
13678.10919830743
 31
0.0
 12
-10952.57052941362
 22
13693.10919830743
 32
0.0
 13
-10952.57052941362
 23
13693.10919830743
 33
0.0
  0
MTEXT
  5
FBD4
330
FBCD
100
AcDbEntity
  8
0
 62
     0
100
AcDbMText
 10
-10963.20030590966
 20
13566.10919830743
 30
0.0
 40
15.0
 41
0.0
 71
     5
 72
     1
  1
254
 11
0.0000000000000001
 21
1.0
 31
0.0
 73
     1
 44
1.0
1001
ACAD
1000
MTEXTBEGIN
1070
    73
1070
     1
1070
    44
1040
1.0
1070
    74
1070
     0
1000
MTEXTEND
  0
POINT
  5
FBD5
330
FBCD
100
AcDbEntity
  8
Defpoints
 62
     0
100
AcDbPoint
 10
-11031.62372713418
 20
13439.10919830743
 30
0.0
  0
POINT
  5
FBD6
330
FBCD
100
AcDbEntity
  8
Defpoints
 62
     0
100
AcDbPoint
 10
-11006.22372713419
 20
13693.10919830743
 30
0.0
  0
POINT
  5
FBD7
330
FBCD
100
AcDbEntity
  8
Defpoints
 62
     0
100
AcDbPoint
 10
-10952.57052941362
 20
13693.10919830743
 30
0.0
  0
ENDBLK
  5
FBD8
330
FBCD
100
AcDbEntity
  8
0
100
AcDbBlockEnd
  0
BLOCK
  5
FBDA
330
FBD9
100
AcDbEntity
  8
0
100
AcDbBlockBegin
  2
*D8
 70
     1
 10
0.0
 20
0.0
 30
0.0
  3
*D8
  1

  0
LINE
  5
FBDB
330
FBD9
100
AcDbEntity
  8
0
 62
     6
370
    15
100
AcDbLine
 10
-11196.72372713419
 20
13201.03002602679
 30
0.0
 11
-11053.86950176205
 21
13201.03002602679
 31
0.0
  0
LINE
  5
FBDC
330
FBD9
100
AcDbEntity
  8
0
 62
     6
370
    15
100
AcDbLine
 10
-11196.72372713419
 20
13316.03002602679
 30
0.0
 11
-11053.86950176205
 21
13316.03002602679
 31
0.0
  0
LINE
  5
FBDD
330
FBD9
100
AcDbEntity
  8
0
 62
     6
370
    15
100
AcDbLine
 10
-11055.11950176205
 20
13216.03002602679
 30
0.0
 11
-11055.11950176205
 21
13301.03002602679
 31
0.0
  0
SOLID
  5
FBDE
330
FBD9
100
AcDbEntity
  8
0
 62
     6
100
AcDbTrace
 10
-11057.61950176205
 20
13216.03002602679
 30
0.0
 11
-11052.61950176205
 21
13216.03002602679
 31
0.0
 12
-11055.11950176205
 22
13201.03002602679
 32
0.0
 13
-11055.11950176205
 23
13201.03002602679
 33
0.0
  0
SOLID
  5
FBDF
330
FBD9
100
AcDbEntity
  8
0
 62
     6
100
AcDbTrace
 10
-11057.61950176205
 20
13301.03002602679
 30
0.0
 11
-11052.61950176205
 21
13301.03002602679
 31
0.0
 12
-11055.11950176205
 22
13316.03002602679
 32
0.0
 13
-11055.11950176205
 23
13316.03002602679
 33
0.0
  0
MTEXT
  5
FBE0
330
FBD9
100
AcDbEntity
  8
0
 62
     0
100
AcDbMText
 10
-11065.74927825809
 20
13258.53002602678
 30
0.0
 40
15.0
 41
0.0
 71
     5
 72
     1
  1
115
 11
0.0000000000000001
 21
1.0
 31
0.0
 73
     1
 44
1.0
1001
ACAD
1000
MTEXTBEGIN
1070
    73
1070
     1
1070
    44
1040
1.0
1070
    74
1070
     0
1000
MTEXTEND
  0
POINT
  5
FBE1
330
FBD9
100
AcDbEntity
  8
Defpoints
 62
     0
100
AcDbPoint
 10
-11196.72372713419
 20
13201.03002602679
 30
0.0
  0
POINT
  5
FBE2
330
FBD9
100
AcDbEntity
  8
Defpoints
 62
     0
100
AcDbPoint
 10
-11196.72372713419
 20
13316.03002602679
 30
0.0
  0
POINT
  5
FBE3
330
FBD9
100
AcDbEntity
  8
Defpoints
 62
     0
100
AcDbPoint
 10
-11055.11950176205
 20
13316.03002602679
 30
0.0
  0
ENDBLK
  5
FBE4
330
FBD9
100
AcDbEntity
  8
0
100
AcDbBlockEnd
  0
BLOCK
  5
FC11
330
FBE7
100
AcDbEntity
  8
0
100
AcDbBlockBegin
  2
A$C54270A98
 70
     0
 10
0.0
 20
0.0
 30
0.0
  3
A$C54270A98
  1

  0
DIMENSION
  5
FBE8
102
{ACAD_XDICTIONARY
360
FBE9
102
}
102
{ACAD_REACTORS
330
FBEA
102
}
330
FBE7
100
AcDbEntity
  8
0
100
AcDbDimension
  2
*D3
 10
381.0000146357706
 20
2.500010257206668
 30
0.0
 11
190.5000146357706
 21
13.1297867532412
 31
0.0
 12
11387.22374176996
 22
-12761.30623905527
 32
0.0
 71
     5
 42
381.0000000000018
  3
ISO-25
100
AcDbAlignedDimension
 13
0.0000146357688209
 23
72.12378697151871
 33
0.0
 14
381.0000146357706
 24
72.12378697151871
 34
0.0
100
AcDbRotatedDimension
  0
DIMENSION
  5
FBEB
102
{ACAD_XDICTIONARY
360
FBEC
102
}
102
{ACAD_REACTORS
330
FBED
102
}
330
FBE7
100
AcDbEntity
  8
0
100
AcDbDimension
  2
*D4
 10
355.6000146357692
 20
26.57472688358212
 30
0.0
 11
190.5000146357688
 21
38.91863459807428
 31
0.0
 12
11387.22374176996
 22
-12761.30623905527
 32
0.0
 71
     5
 42
330.2000000000007
  3
ISO-25
100
AcDbAlignedDimension
 13
25.40001463576846
 23
97.52378697151835
 33
0.0
 14
355.6000146357692
 24
97.52378697151835
 34
0.0
100
AcDbRotatedDimension
  0
DIMENSION
  5
FBEE
102
{ACAD_XDICTIONARY
360
FBEF
102
}
102
{ACAD_REACTORS
330
FBF0
102
}
330
FBE7
100
AcDbEntity
  8
0
100
AcDbDimension
  2
*D5
 10
423.3235681854093
 20
97.52378697151835
 30
0.0
 11
410.9796604709136
 21
326.1237869715169
 31
0.0
 12
11387.22374176996
 22
-12761.30623905527
 32
0.0
 71
     5
 42
457.1999999999989
  3
ISO-25
100
AcDbAlignedDimension
 13
355.6000146357692
 23
554.7237869715172
 33
0.0
 14
355.6000146357692
 24
97.52378697151835
 34
0.0
 50
90.0
100
AcDbRotatedDimension
  0
DIMENSION
  5
FBF1
102
{ACAD_XDICTIONARY
360
FBF2
102
}
102
{ACAD_REACTORS
330
FBF3
102
}
330
FBE7
100
AcDbEntity
  8
0
100
AcDbDimension
  2
*D6
 10
465.3670144199532
 20
72.12378697151871
 30
0.0
 11
454.737237923915
 21
326.1237869715169
 31
0.0
 12
11387.22374176996
 22
-12761.30623905527
 32
0.0
 71
     5
 42
508.0000000000018
  3
ISO-25
100
AcDbAlignedDimension
 13
381.0000146357706
 23
580.1237869715205
 33
0.0
 14
381.0000146357706
 24
72.12378697151871
 34
0.0
 50
90.0
100
AcDbRotatedDimension
  0
DIMENSION
  5
FBF4
102
{ACAD_XDICTIONARY
360
FBF5
102
}
102
{ACAD_REACTORS
330
FBF6
102
}
330
FBE7
100
AcDbEntity
  8
0
100
AcDbDimension
  2
*D7
 10
434.6532123563338
 20
931.8029592521579
 30
0.0
 11
424.0234358602956
 21
804.8029592521579
 31
0.0
 12
11387.22374176996
 22
-12761.30623905527
 32
0.0
 71
     5
 42
253.9999999999982
  3
ISO-25
100
AcDbAlignedDimension
 13
355.600014635771
 23
677.8029592521598
 33
0.0
 14
381.0000146357688
 24
931.8029592521579
 34
0.0
 50
90.0
100
AcDbRotatedDimension
  0
LINE
  5
FBF7
330
FBE7
100
AcDbEntity
  8
0
100
AcDbLine
 10
138.4048843711771
 20
672.8855198003766
 30
0.0
 11
242.5951449003642
 21
672.8855198003766
 31
0.0
  0
LINE
  5
FBF8
330
FBE7
100
AcDbEntity
  8
0
100
AcDbLine
 10
132.5000146357688
 20
677.8029592521634
 30
0.0
 11
248.5000146357724
 21
677.8029592521598
 31
0.0
  0
LINE
  5
FBF9
330
FBE7
100
AcDbEntity
  8
0
100
AcDbLine
 10
25.40001463577028
 20
931.8029592521579
 30
0.0
 11
355.600014635771
 21
931.8029592521579
 31
0.0
  0
LINE
  5
FBFA
330
FBE7
100
AcDbEntity
  8
0
  6
ACAD_ISO10W100
 62
     1
100
AcDbLine
 10
190.5000146357688
 20
730.3131929908613
 30
0.0
 11
190.5000146357688
 21
634.1235787221794
 31
0.0
  0
LINE
  5
FBFB
102
{ACAD_REACTORS
330
FBF6
102
}
330
FBE7
100
AcDbEntity
  8
0
370
    50
100
AcDbLine
 10
248.5000146357724
 20
677.8029592521598
 30
0.0
 11
355.600014635771
 21
677.8029592521598
 31
0.0
  0
LINE
  5
FBFC
330
FBE7
100
AcDbEntity
  8
0
370
    50
100
AcDbLine
 10
248.5000146357724
 20
677.8029592521579
 30
0.0
 11
247.5951449003642
 21
672.8855198003766
 31
0.0
  0
LINE
  5
FBFD
330
FBE7
100
AcDbEntity
  8
0
370
    50
100
AcDbLine
 10
247.5951449003642
 20
672.8855198003766
 30
0.0
 11
242.5951449003642
 21
672.8855198003766
 31
0.0
  0
LINE
  5
FBFE
330
FBE7
100
AcDbEntity
  8
0
370
    50
100
AcDbLine
 10
133.4048843711771
 20
672.8855198003766
 30
0.0
 11
138.4048843711771
 21
672.8855198003766
 31
0.0
  0
LINE
  5
FBFF
330
FBE7
100
AcDbEntity
  8
0
370
    50
100
AcDbLine
 10
132.5000146357688
 20
677.8029592521579
 30
0.0
 11
133.4048843711771
 21
672.8855198003766
 31
0.0
  0
LINE
  5
FC00
102
{ACAD_REACTORS
330
FBF6
102
}
330
FBE7
100
AcDbEntity
  8
0
370
    50
100
AcDbLine
 10
355.600014635771
 20
931.8029592521579
 30
0.0
 11
381.0000146357688
 21
931.8029592521579
 31
0.0
  0
LINE
  5
FC01
330
FBE7
100
AcDbEntity
  8
0
370
    50
100
AcDbLine
 10
355.600014635771
 20
677.8029592521598
 30
0.0
 11
355.600014635771
 21
931.8029592521579
 31
0.0
  0
LINE
  5
FC02
330
FBE7
100
AcDbEntity
  8
0
370
    50
100
AcDbLine
 10
25.40001463577028
 20
677.8029592521579
 30
0.0
 11
132.5000146357688
 21
677.8029592521634
 31
0.0
  0
LINE
  5
FC03
330
FBE7
100
AcDbEntity
  8
0
370
    50
100
AcDbLine
 10
25.40001463577028
 20
931.8029592521579
 30
0.0
 11
25.40001463577028
 21
677.8029592521579
 31
0.0
  0
LINE
  5
FC04
330
FBE7
100
AcDbEntity
  8
0
370
    50
100
AcDbLine
 10
0.0000146357688209
 20
931.8029592521579
 30
0.0
 11
25.40001463577028
 21
931.8029592521579
 31
0.0
  0
REGION
  5
FC05
102
{ACAD_REACTORS
330
FBF3
330
FBEA
102
}
330
FBE7
100
AcDbEntity
  8
0
370
    50
100
AcDbModelerGeometry
 70
     1
  1
koo mi n o          
  1
ni ^ *+0;:,4 ^ *+0\^ [ nh ^ LR iqoqjqhook QK mk Y-6 Y:= mi njejleln mono 
  1
n fqfffffffffffffffj:rooh n:rono 
  1
=0;& {rn {n {rn {rn |
  1
3*2/ {rn {rn {m {o |
  1
,7:33 {rn {rn {rn {l {rn {n |
  1
9><: {rn {rn {k {m {rn {j 90-(>-; ;0*=3: 0*+ |
  1
300/ {rn {rn {i {l |
  1
/3>1:r,*-9><: {rn nfoqjooonkiljhhoik lmiqnmlhgifhnjnigf o o o n n o o 90-(>-;@) V V V V |
  1
<0:;8: {rn {h {g {rn {f -:):-,:; {k {rn |
  1
<0:;8: {rn {no {i {rn {nn -:):-,:; {k {rn |
  1
<0:;8: {rn {i {no {rn {nm -:):-,:; {k {rn |
  1
:;8: {rn {nl {nk {i {nj 90-(>-; |
  1
<0:;8: {rn {g {h {rn {ni -:):-,:; {k {rn |
  1
:;8: {rn {nh {nl {h {ng 90-(>-; |
  1
:;8: {rn {nk {nf {g {mo 90-(>-; |
  1
):-+:' {rn {f {mn |
  1
):-+:' {rn {f {mm |
  1
,+->687+r<*-): {rn lgnqoooonkiljhhoik hmqnmlhgifhnjnghnm o rn o o V V |
  1
:;8: {rn {nf {nh {no {ml 90-(>-; |
  1
):-+:' {rn {ni {mk |
  1
,+->687+r<*-): {rn lgnqoooonkiljhhoik jgoqnmlhgifhnjmojl o o rn o V V |
  1
):-+:' {rn {nm {mj |
  1
,+->687+r<*-): {rn nqkiljhiggmoggofnm:rooj hmqnmlhgifhnjnghnm o o n o V V |
  1
/061+ {rn lgnqoooonkiljhhoik hmqnmlhgifhnjnghnm o |
  1
/061+ {rn nqkiljhiggmoggofnm:rooj hmqnmlhgifhnjnghnm o |
  1
,+->687+r<*-): {rn nqkiljhiggmoggofnm:rooj jgoqnmlhgifhnjnghn o n kqhhkmjokoloohkhkk:ronj o V V |
  1
/061+ {rn lgnqoooonkiljhhoik jgoqnmlhgifhnjmojl o |
  1
/061+ {rn nqkiljhiggmoggofnm:rooj jgoqnmlhgifhnjnghn o |
  0
REGION
  5
FC06
102
{ACAD_REACTORS
330
FBF0
330
FBED
330
FC10
102
}
330
FBE7
100
AcDbEntity
  8
0
370
    50
100
AcDbModelerGeometry
 70
     1
  1
koo mi n o          
  1
ni ^ *+0;:,4 ^ *+0\^ [ nh ^ LR iqoqjqhook QK mk Y-6 Y:= mi njejleln mono 
  1
n fqfffffffffffffffj:rooh n:rono 
  1
=0;& {rn {n {rn {rn |
  1
3*2/ {rn {rn {m {o |
  1
,7:33 {rn {rn {rn {l {rn {n |
  1
9><: {rn {rn {k {m {rn {j 90-(>-; ;0*=3: 0*+ |
  1
300/ {rn {rn {i {l |
  1
/3>1:r,*-9><: {rn nfoqjooonkiljhih lmiqnmlhgifhnjnghn o o o n n o o 90-(>-;@) V V V V |
  1
<0:;8: {rn {h {g {rn {f 90-(>-; {k {rn |
  1
<0:;8: {rn {no {i {rn {nn 90-(>-; {k {rn |
  1
<0:;8: {rn {i {no {rn {nm 90-(>-; {k {rn |
  1
:;8: {rn {nl {nk {i {nj 90-(>-; |
  1
<0:;8: {rn {g {h {rn {ni 90-(>-; {k {rn |
  1
:;8: {rn {nk {nh {h {ng 90-(>-; |
  1
:;8: {rn {nf {nl {g {mo 90-(>-; |
  1
):-+:' {rn {f {mn |
  1
):-+:' {rn {f {mm |
  1
,+->687+r<*-): {rn mjqkooonkiljhigkjh jjkqhmlhgifhnjnfog o o rn o V V |
  1
:;8: {rn {nh {nf {no {ml 90-(>-; |
  1
):-+:' {rn {nn {mk |
  1
,+->687+r<*-): {rn mjqkooonkiljhigkjh fhqjmlhgifhnjnglkg o n o o V V |
  1
):-+:' {rn {ni {mj |
  1
,+->687+r<*-): {rn ljjqiooonkiljhifng jjkqhmlhgifhnjnfog o rn o o V V |
  1
/061+ {rn mjqkooonkiljhigkjh jjkqhmlhgifhnjnfog o |
  1
/061+ {rn mjqkooonkiljhigkjh fhqjmlhgifhnjnglkg o |
  1
,+->687+r<*-): {rn ljjqiooonkiljhifng fhqjmlhgifhnjnglkg o o n o V V |
  1
/061+ {rn ljjqiooonkiljhifng fhqjmlhgifhnjnglkg o |
  1
/061+ {rn ljjqiooonkiljhifng jjkqhmlhgifhnjnfog o |
  0
LINE
  5
FC07
330
FBE7
100
AcDbEntity
  8
0
100
AcDbLine
 10
25.40001463576846
 20
554.723786971519
 30
0.0
 11
149.6132126113152
 21
480.8609893583252
 31
0.0
  0
LINE
  5
FC08
330
FBE7
100
AcDbEntity
  8
0
100
AcDbLine
 10
25.40001463576846
 20
97.52378697151835
 30
0.0
 11
172.1250478775691
 21
384.7114193017369
 31
0.0
  0
LINE
  5
FC09
102
{ACAD_REACTORS
330
FBF0
102
}
330
FBE7
100
AcDbEntity
  8
0
100
AcDbLine
 10
231.3868166602224
 20
480.8609893583252
 30
0.0
 11
355.6000146357692
 21
554.7237869715172
 31
0.0
  0
LINE
  5
FC0A
330
FBE7
100
AcDbEntity
  8
0
100
AcDbLine
 10
208.8749813939685
 20
384.7114193017369
 30
0.0
 11
355.6000146357692
 21
97.52378697151835
 31
0.0
  0
REGION
  5
FC0B
330
FBE7
100
AcDbEntity
  8
0
100
AcDbModelerGeometry
 70
     1
  1
koo nn n o          
  1
ni ^ *+0;:,4 ^ *+0\^ [ nh ^ LR iqoqjqhook QK mk Y-6 Y:= mi njejleln mono 
  1
n fqfffffffffffffffj:rooh n:rono 
  1
=0;& {rn {n {rn {rn |
  1
3*2/ {rn {rn {m {o |
  1
,7:33 {rn {rn {rn {l {rn {n |
  1
9><: {rn {rn {k {m {rn {j 90-(>-; ;0*=3: 0*+ |
  1
300/ {rn {rn {i {l |
  1
/3>1:r,*-9><: {rn nfoqjooonkiljhiggm klfqhmlhgifhnjnhmi o o o n n o o 90-(>-;@) V V V V |
  1
<0:;8: {rn {i {i {rn {h 90-(>-; {k {rn |
  1
:;8: {rn {g {g {i {f 90-(>-; |
  1
):-+:' {rn {h {no |
  1
:336/,:r<*-): {rn nfoqjooonkiljhiggm klfqhmlhgifhnjnhmi o o o n kj o o n V V |
  1
/061+ {rn mljqjooonkiljhiggm klfqhmlhgifhnjnhmi o |
  0
REGION
  5
FC0C
330
FBE7
100
AcDbEntity
  8
0
100
AcDbModelerGeometry
 70
     1
  1
koo nn n o          
  1
ni ^ *+0;:,4 ^ *+0\^ [ nh ^ LR iqoqjqhook QK mk Y-6 Y:= mi njejleln mono 
  1
n fqfffffffffffffffj:rooh n:rono 
  1
=0;& {rn {n {rn {rn |
  1
3*2/ {rn {rn {m {o |
  1
,7:33 {rn {rn {rn {l {rn {n |
  1
9><: {rn {rn {k {m {rn {j 90-(>-; ;0*=3: 0*+ |
  1
300/ {rn {rn {i {l |
  1
/3>1:r,*-9><: {rn nfoqjooonkiljhiggm klfqhmlhgifhnjnhmi o o o n n o o 90-(>-;@) V V V V |
  1
<0:;8: {rn {i {i {rn {h 90-(>-; {k {rn |
  1
:;8: {rn {g {g {i {f 90-(>-; |
  1
):-+:' {rn {h {no |
  1
:336/,:r<*-): {rn nfoqjooonkiljhiggm klfqhmlhgifhnjnhmi o o o n jhqj o o n V V |
  1
/061+ {rn mkgqoooonkiljhiggm klfqhmlhgifhnjnhmi o |
  0
REGION
  5
FC0D
102
{ACAD_REACTORS
330
FC10
102
}
330
FBE7
100
AcDbEntity
  8
0
100
AcDbModelerGeometry
 70
     1
  1
koo nn n o          
  1
ni ^ *+0;:,4 ^ *+0\^ [ nh ^ LR iqoqjqhook QK mk Y-6 Y:= mi njejleln mono 
  1
n fqfffffffffffffffj:rooh n:rono 
  1
=0;& {rn {n {rn {rn |
  1
3*2/ {rn {rn {m {o |
  1
,7:33 {rn {rn {rn {l {rn {n |
  1
9><: {rn {rn {k {m {rn {j 90-(>-; ;0*=3: 0*+ |
  1
300/ {rn {rn {i {l |
  1
/3>1:r,*-9><: {rn nfoqjooonkiljhiggm klfqhmlhgifhnjnhmi o o o n n o o 90-(>-;@) V V V V |
  1
<0:;8: {rn {i {i {rn {h 90-(>-; {k {rn |
  1
:;8: {rn {g {g {i {f 90-(>-; |
  1
):-+:' {rn {h {no |
  1
:336/,:r<*-): {rn nfoqjooonkiljhiggm klfqhmlhgifhnjnhmi o o o n jg o o n V V |
  1
/061+ {rn mkgqjooonkiljhiggm klfqhmlhgifhnjnhmi o |
  0
DIMENSION
  5
FC0E
102
{ACAD_XDICTIONARY
360
FC0F
102
}
102
{ACAD_REACTORS
330
FC10
102
}
330
FBE7
100
AcDbEntity
  8
0
100
AcDbDimension
  2
*D8
 10
332.1042400079095
 20
554.723786971519
 30
0.0
 11
321.4744635118714
 21
497.2237869715154
 31
0.0
 12
11387.22374176996
 22
-12761.30623905527
 32
0.0
 71
     5
 42
115.0000000000018
  3
ISO-25
100
AcDbAlignedDimension
 13
190.5000146357688
 23
439.7237869715172
 33
0.0
 14
190.5000146357688
 24
554.723786971519
 34
0.0
 50
90.0
100
AcDbRotatedDimension
  0
ENDBLK
  5
FC12
330
FBE7
100
AcDbEntity
  8
0
100
AcDbBlockEnd
  0
BLOCK
  5
11AD5
330
11A79
100
AcDbEntity
  8
0
100
AcDbBlockBegin
  2
A$C014A79D5
 70
     0
 10
0.0
 20
0.0
 30
0.0
  3
A$C014A79D5
  1

  0
MTEXT
  5
11A7A
330
11A79
100
AcDbEntity
  8
虚线
 62
     7
370
    18
100
AcDbMText
 10
1516.684710652542
 20
258.8844606239691
 30
0.0
 40
13.47422548607616
 41
130.8917715601994
 71
     5
 72
     5
  1
{\fSimSun|b0|i0|c134|p2;\H0.9027x;UPDATE SYMBOL}
 73
     1
 44
1.0
1001
ACAD
1000
MTEXTBEGIN
1070
    73
1070
     1
1070
    44
1040
1.0
1070
    74
1070
     0
1000
MTEXTEND
  0
MTEXT
  5
11A7B
330
11A79
100
AcDbEntity
  8
虚线
 62
     7
370
    18
100
AcDbMText
 10
1516.684710652542
 20
234.8352975800535
 30
0.0
 40
16.84278185759519
 41
130.8917715601982
 71
     5
 72
     5
  1
{\fSimSun|b0|i0|c134|p54;\H0.7222x;更改   标记}
 73
     1
 44
1.0
1001
ACAD
1000
MTEXTBEGIN
1070
    73
1070
     1
1070
    44
1040
1.0
1070
    74
1070
     0
1000
MTEXTEND
  0
MTEXT
  5
11A7C
330
11A79
100
AcDbEntity
  8
虚线
 62
     7
370
    18
100
AcDbMText
 10
1500.970506863366
 20
205.3244318320448
 30
0.0
 40
16.84278185759519
 41
99.46336398184634
 71
     5
 72
     5
  1
{\fSimSun|b0|i0|c134|p2;DWN.}
 73
     1
 44
1.0
1001
ACAD
1000
MTEXTBEGIN
1070
    73
1070
     1
1070
    44
1040
1.0
1070
    74
1070
     0
1000
MTEXTEND
  0
MTEXT
  5
11A7D
330
11A79
100
AcDbEntity
  8
虚线
 62
     7
370
    18
100
AcDbMText
 10
1500.970506863366
 20
178.6502692335834
 30
0.0
 40
17.40577672473871
 41
99.46336398184669
 71
     5
 72
     5
  1
{\fSimSun|b0|i0|c134|p54;制 图}
 73
     1
 44
1.0
1001
ACAD
1000
MTEXTBEGIN
1070
    73
1070
     1
1070
    44
1040
1.0
1070
    74
1070
     0
1000
MTEXTEND
  0
MTEXT
  5
11A7E
330
11A79
100
AcDbEntity
  8
0
370
    -3
100
AcDbMText
 10
1500.970506863366
 20
116.0858755809495
 30
0.0
 40
17.40577672473871
 41
99.46336398184632
 71
     5
 72
     5
  1
{\fSimSun|b0|i0|c134|p54;\C7;审 核}
 73
     1
 44
1.0
1001
ACAD
1000
MTEXTBEGIN
1070
    73
1070
     1
1070
    44
1040
1.0
1070
    74
1070
     0
1000
MTEXTEND
  0
MTEXT
  5
11A7F
330
11A79
100
AcDbEntity
  8
虚线
 62
     7
370
    18
100
AcDbMText
 10
1500.970506863366
 20
62.51583993924942
 30
0.0
 40
17.40577672473871
 41
99.46336398184618
 71
     5
 72
     5
  1
{\fSimSun|b0|i0|c134|p54;批 准}
 73
     1
 44
1.0
1001
ACAD
1000
MTEXTBEGIN
1070
    73
1070
     1
1070
    44
1040
1.0
1070
    74
1070
     0
1000
MTEXTEND
  0
MTEXT
  5
11A80
330
11A79
100
AcDbEntity
  8
虚线
370
    18
100
AcDbMText
 10
1500.970506863366
 20
87.61059167435632
 30
0.0
 40
16.84278185759519
 41
99.46336398184627
 71
     5
 72
     5
  1
{\fSimSun|b0|i0|c134|p2;\C7;APPD.}
 73
     1
 44
1.0
1001
ACAD
1000
MTEXTBEGIN
1070
    73
1070
     1
1070
    44
1040
1.0
1070
    74
1070
     0
1000
MTEXTEND
  0
LINE
  5
11A81
330
11A79
100
AcDbEntity
  8
0
370
    -3
100
AcDbLine
 10
1550.702188854288
 20
221.9996307629317
 30
0.0
 11
1550.702188854288
 21
44.99999651371581
 31
0.0
  0
MTEXT
  5
11A82
330
11A79
100
AcDbEntity
  8
0
370
    -3
100
AcDbMText
 10
1500.970506863366
 20
145.4426676984258
 30
0.0
 40
16.84278185759519
 41
99.46336398184627
 71
     5
 72
     5
  1
{\fSimSun|b0|i0|c134|p2;\C7;CKD.}
 73
     1
 44
1.0
1001
ACAD
1000
MTEXTBEGIN
1070
    73
1070
     1
1070
    44
1040
1.0
1070
    74
1070
     0
1000
MTEXTEND
  0
LINE
  5
11A83
330
11A79
100
AcDbEntity
  8
0
370
    60
100
AcDbLine
 10
1451.238824872442
 20
442.8522921488183
 30
0.0
 11
1451.238824872442
 21
44.99999651371581
 31
0.0
  0
LINE
  5
11A84
330
11A79
100
AcDbEntity
  8
0
370
    -3
100
AcDbLine
 10
1582.130596432645
 20
336.6366569202655
 30
0.0
 11
1582.13059643264
 21
221.999630762908
 31
0.0
  0
LINE
  5
11A85
330
11A79
100
AcDbEntity
  8
中心线
370
    -3
100
AcDbLine
 10
2311.187900527377
 20
130.6339394883725
 30
0.0
 11
2142.507007531182
 21
130.6339394883725
 31
0.0
  0
MTEXT
  5
11A86
330
11A79
100
AcDbEntity
  8
虚线
 62
     7
370
    18
100
AcDbMText
 10
2002.092294379167
 20
192.7579066170183
 30
0.0
 40
18.0
 41
89.46861478431975
 71
     5
 72
     5
  1
{\fSimSun|b0|i0|c134|p2;1件}
 73
     1
 44
1.0
1001
ACAD
1000
MTEXTBEGIN
1070
    73
1070
     1
1070
    44
1040
1.0
1070
    74
1070
     0
1000
MTEXTEND
  0
MTEXT
  5
11A87
330
11A79
100
AcDbEntity
  8
虚线
 62
     7
370
    18
100
AcDbMText
 10
2104.330289199896
 20
207.448246539816
 30
0.0
 40
16.84278185759518
 41
115.0073748571392
 71
     5
 72
     5
  1
{\fSimSun|b0|i0|c134|p2;MATERIAL}
 73
     1
 44
1.0
1001
ACAD
1000
MTEXTBEGIN
1070
    73
1070
     1
1070
    44
1040
1.0
1070
    74
1070
     0
1000
MTEXTEND
  0
MTEXT
  5
11A88
330
11A79
100
AcDbEntity
  8
虚线
 62
     7
370
    18
100
AcDbMText
 10
2104.330289199896
 20
179.6443951366709
 30
0.0
 40
17.40577672473871
 41
115.0073748571392
 71
     5
 72
     5
  1
{\fSimSun|b0|i0|c134|p54;材 料}
 73
     1
 44
1.0
1001
ACAD
1000
MTEXTBEGIN
1070
    73
1070
     1
1070
    44
1040
1.0
1070
    74
1070
     0
1000
MTEXTEND
  0
LINE
  5
11A89
330
11A79
100
AcDbEntity
  8
0
370
    -3
100
AcDbLine
 10
2046.826601771327
 20
221.999630762908
 30
0.0
 11
2046.826601771327
 21
44.99999651371581
 31
0.0
  0
LINE
  5
11A8A
330
11A79
100
AcDbEntity
  8
0
370
    60
100
AcDbLine
 10
2415.415469851896
 20
1665.831297496721
 30
0.0
 11
2415.415469851896
 21
44.99999651371581
 31
0.0
  0
MTEXT
  5
11A8B
330
11A79
100
AcDbEntity
  8
虚线
 62
     7
370
    18
100
AcDbMText
 10
2350.120594984988
 20
364.0777925107268
 30
0.0
 40
19.2
 41
130.5897497338164
 71
     5
 72
     5
  1
HA104-5
 73
     1
 44
1.0
1001
ACAD
1000
ACAD_MTEXT_DEFINED_HEIGHT_BEGIN
1070
    46
1040
0.0
1000
ACAD_MTEXT_DEFINED_HEIGHT_END
1000
MTEXTBEGIN
1070
    73
1070
     1
1070
    44
1040
1.0
1070
    74
1070
     0
1000
MTEXTEND
  0
MTEXT
  5
11A8C
330
11A79
100
AcDbEntity
  8
虚线
 62
     7
370
    18
100
AcDbMText
 10
2221.665288152131
 20
379.2196090206689
 30
0.0
 40
13.47422548607616
 41
126.3208639318967
 71
     5
 72
     5
  1
{\fSimSun|b0|i0|c134|p2;MODEL NO.}
 73
     1
 44
1.0
1001
ACAD
1000
MTEXTBEGIN
1070
    73
1070
     1
1070
    44
1040
1.0
1070
    74
1070
     0
1000
MTEXTEND
  0
MTEXT
  5
11A8D
330
11A79
100
AcDbEntity
  8
虚线
 62
     7
370
    18
100
AcDbMText
 10
2221.665288152131
 20
355.0749766801582
 30
0.0
 40
17.40577672473871
 41
126.3208639318967
 71
     5
 72
     5
  1
{\fSimSun|b0|i0|c134|p2;型 号}
 73
     1
 44
1.0
1001
ACAD
1000
MTEXTBEGIN
1070
    73
1070
     1
1070
    44
1040
1.0
1070
    74
1070
     0
1000
MTEXTEND
  0
LINE
  5
11A8E
330
11A79
100
AcDbEntity
  8
0
370
    -3
100
AcDbLine
 10
2158.504856186184
 20
389.7444745345765
 30
0.0
 11
2158.504856186184
 21
336.6366569202655
 31
0.0
  0
LINE
  5
11A8F
330
11A79
100
AcDbEntity
  8
0
370
    -3
100
AcDbLine
 10
2284.82572011808
 20
389.7444745345765
 30
0.0
 11
2284.82572011808
 21
336.6366569202655
 31
0.0
  0
MTEXT
  5
11A90
330
11A79
100
AcDbEntity
  8
虚线
 62
     7
370
    18
100
AcDbMText
 10
1959.898323108569
 20
405.6478969554391
 30
0.0
 40
17.40577672473871
 41
113.7273297068778
 71
     5
 72
     5
  1
{\fSimSun|b0|i0|c134|p54;描 述}
 73
     1
 44
1.0
1001
ACAD
1000
MTEXTBEGIN
1070
    73
1070
     1
1070
    44
1040
1.0
1070
    74
1070
     0
1000
MTEXTEND
  0
MTEXT
  5
11A91
330
11A79
100
AcDbEntity
  8
虚线
 62
     7
370
    18
100
AcDbMText
 10
1959.898323108569
 20
379.1699264929539
 30
0.0
 40
13.47422548607616
 41
113.7273297068795
 71
     5
 72
     5
  1
{\fSimSun|b0|i0|c134|p2;DWG. NO.}
 73
     1
 44
1.0
1001
ACAD
1000
MTEXTBEGIN
1070
    73
1070
     1
1070
    44
1040
1.0
1070
    74
1070
     0
1000
MTEXTEND
  0
MTEXT
  5
11A92
330
11A79
100
AcDbEntity
  8
虚线
 62
     7
370
    18
100
AcDbMText
 10
1959.898323108571
 20
356.6207453812495
 30
0.0
 40
17.40577672473871
 41
113.727329706883
 71
     5
 72
     5
  1
{\fSimSun|b0|i0|c134|p54;图 号}
 73
     1
 44
1.0
1001
ACAD
1000
MTEXTBEGIN
1070
    73
1070
     1
1070
    44
1040
1.0
1070
    74
1070
     0
1000
MTEXTEND
  0
LINE
  5
11A93
330
11A79
100
AcDbEntity
  8
0
370
    -3
100
AcDbLine
 10
1903.03465825513
 20
301.6329256991939
 30
0.0
 11
1451.238824872442
 21
301.6329256991794
 31
0.0
  0
LINE
  5
11A94
330
11A79
100
AcDbEntity
  8
0
370
    -3
100
AcDbLine
 10
1903.03465825513
 20
336.6366569202655
 30
0.0
 11
1451.238824872442
 21
336.6366569202655
 31
0.0
  0
LINE
  5
11A95
330
11A79
100
AcDbEntity
  8
0
370
    -3
100
AcDbLine
 10
2016.761987961998
 20
442.8522921488183
 30
0.0
 11
2016.761987962018
 21
336.6366569202619
 31
0.0
  0
MTEXT
  5
11A96
330
11A79
100
AcDbEntity
  8
虚线
 62
     7
370
    18
100
AcDbMText
 10
1959.898323108566
 20
431.5115296464137
 30
0.0
 40
13.47422548607616
 41
113.7273297068724
 71
     5
 72
     5
  1
{\fSimSun|b0|i0|c134|p2;DESCRIPTION}
 73
     1
 44
1.0
1001
ACAD
1000
MTEXTBEGIN
1070
    73
1070
     1
1070
    44
1040
1.0
1070
    74
1070
     0
1000
MTEXTEND
  0
LINE
  5
11A97
330
11A79
100
AcDbEntity
  8
0
370
    -3
100
AcDbLine
 10
2415.415469851896
 20
336.6366569202655
 30
0.0
 11
1903.03465825513
 21
336.6366569202655
 31
0.0
  0
LINE
  5
11A98
330
11A79
100
AcDbEntity
  8
0
370
    -3
100
AcDbLine
 10
2415.415469851896
 20
389.744474534542
 30
0.0
 11
1903.03465825513
 21
389.744474534542
 31
0.0
  0
LINE
  5
11A99
330
11A79
100
AcDbEntity
  8
0
370
    60
100
AcDbLine
 10
2415.415469851896
 20
442.8522921488183
 30
0.0
 11
1451.238824872442
 21
442.8522921488183
 31
0.0
  0
LINE
  5
11A9A
330
11A79
100
AcDbEntity
  8
0
370
    -3
100
AcDbLine
 10
2229.13509548257
 20
112.4255448777639
 30
0.0
 11
2229.13509548257
 21
148.9660667456537
 31
0.0
  0
CIRCLE
  5
11A9B
330
11A79
100
AcDbEntity
  8
0
370
    -3
100
AcDbCircle
 10
2287.469148172327
 20
130.6339394883725
 30
0.0
 40
18.20839461060902
  0
CIRCLE
  5
11A9C
330
11A79
100
AcDbEntity
  8
0
370
    -3
100
AcDbCircle
 10
2287.469148172327
 20
130.6339394883725
 30
0.0
 40
9.104197305304513
  0
LINE
  5
11A9D
330
11A79
100
AcDbEntity
  8
中心线
370
    -3
100
AcDbLine
 10
2287.469148172327
 20
106.9151871333306
 30
0.0
 11
2287.469148172327
 21
154.3526918434108
 31
0.0
  0
MTEXT
  5
11A9E
330
11A79
100
AcDbEntity
  8
虚线
 62
     7
370
    18
100
AcDbMText
 10
2002.092294379167
 20
130.8123935162039
 30
0.0
 40
18.0
 41
89.46861478431975
 71
     5
 72
     5
  1
{\fSimSun|b0|i0|c134|p2;1:1}
 73
     1
 44
1.0
1001
ACAD
1000
MTEXTBEGIN
1070
    73
1070
     1
1070
    44
1040
1.0
1070
    74
1070
     0
1000
MTEXTEND
  0
LINE
  5
11A9F
330
11A79
100
AcDbEntity
  8
0
370
    -3
100
AcDbLine
 10
2149.950235930543
 20
121.5297421830655
 30
0.0
 11
2149.950235930543
 21
139.7583445752079
 31
0.0
  0
LINE
  5
11AA0
330
11A79
100
AcDbEntity
  8
0
370
    -3
100
AcDbLine
 10
2229.13509548257
 20
112.4255448777639
 30
0.0
 11
2149.950235930543
 21
121.5297421830655
 31
0.0
  0
LINE
  5
11AA1
330
11A79
100
AcDbEntity
  8
0
370
    -3
100
AcDbLine
 10
2149.950235930543
 20
139.7583445752079
 30
0.0
 11
2229.13509548257
 21
148.9660667456537
 31
0.0
  0
MTEXT
  5
11AA2
330
11A79
100
AcDbEntity
  8
虚线
 62
     7
370
    18
100
AcDbMText
 10
2250.454373182304
 20
73.92504512914456
 30
0.0
 40
17.40577672473871
 41
33.61809120799651
 71
     1
 72
     5
  1
{\fSimSun|b0|i0|c134|p54;第}
 73
     1
 44
1.0
1001
ACAD
1000
MTEXTBEGIN
1070
    73
1070
     1
1070
    44
1040
1.0
1070
    74
1070
     0
1000
MTEXTEND
  0
MTEXT
  5
11AA3
330
11A79
100
AcDbEntity
  8
虚线
 62
     7
370
    18
100
AcDbMText
 10
2302.479548117226
 20
69.89327413929823
 30
0.0
 40
17.40577672473871
 41
53.01030554991771
 71
     1
 72
     5
  1
{\fSimSun|b0|i0|c134|p2;(  )}
 73
     1
 44
1.0
1001
ACAD
1000
MTEXTBEGIN
1070
    73
1070
     1
1070
    44
1040
1.0
1070
    74
1070
     0
1000
MTEXTEND
  0
MTEXT
  5
11AA4
330
11A79
100
AcDbEntity
  8
虚线
 62
     7
370
    18
100
AcDbMText
 10
2366.973743370396
 20
73.42691516320883
 30
0.0
 40
17.40577672473871
 41
48.44172648150087
 71
     1
 72
     5
  1
{\fSimSun|b0|i0|c134|p54;页}
 73
     1
 44
1.0
1001
ACAD
1000
MTEXTBEGIN
1070
    73
1070
     1
1070
    44
1040
1.0
1070
    74
1070
     0
1000
MTEXTEND
  0
MTEXT
  5
11AA5
330
11A79
100
AcDbEntity
  8
虚线
 62
     7
370
    18
100
AcDbMText
 10
2190.085848198422
 20
73.0607243847553
 30
0.0
 40
17.40577672473871
 41
30.4153679900103
 71
     1
 72
     5
  1
{\fSimSun|b0|i0|c134|p54;页}
 73
     1
 44
1.0
1001
ACAD
1000
MTEXTBEGIN
1070
    73
1070
     1
1070
    44
1040
1.0
1070
    74
1070
     0
1000
MTEXTEND
  0
MTEXT
  5
11AA6
330
11A79
100
AcDbEntity
  8
虚线
 62
     7
370
    18
100
AcDbMText
 10
2118.806851735957
 20
70.76547852706062
 30
0.0
 40
17.40577672473871
 41
57.48599188738112
 71
     1
 72
     5
  1
{\fSimSun|b0|i0|c134|p2;(  )}
 73
     1
 44
1.0
1001
ACAD
1000
MTEXTBEGIN
1070
    73
1070
     1
1070
    44
1040
1.0
1070
    74
1070
     0
1000
MTEXTEND
  0
MTEXT
  5
11AA7
330
11A79
100
AcDbEntity
  8
虚线
 62
     7
370
    18
100
AcDbMText
 10
2058.528361020388
 20
73.31228568768347
 30
0.0
 40
17.40577672473871
 41
34.10719641292776
 71
     1
 72
     5
  1
{\fSimSun|b0|i0|c134|p54;共}
 73
     1
 44
1.0
1001
ACAD
1000
MTEXTBEGIN
1070
    73
1070
     1
1070
    44
1040
1.0
1070
    74
1070
     0
1000
MTEXTEND
  0
MTEXT
  5
11AA8
330
11A79
100
AcDbEntity
  8
虚线
 62
     7
370
    18
100
AcDbMText
 10
2054.919164002859
 20
95.93061850186677
 30
0.0
 40
16.84278185759519
 41
47.18335811675921
 71
     1
 72
     5
  1
{\fSimSun|b0|i0|c134|p2;ALL}
 73
     1
 44
1.0
1001
ACAD
1000
MTEXTBEGIN
1070
    73
1070
     1
1070
    44
1040
1.0
1070
    74
1070
     0
1000
MTEXTEND
  0
MTEXT
  5
11AA9
330
11A79
100
AcDbEntity
  8
虚线
 62
     7
370
    18
100
AcDbMText
 10
2190.462334416043
 20
95.2402069368054
 30
0.0
 40
16.84278185759519
 41
28.30061348139588
 71
     1
 72
     5
  1
{\fSimSun|b0|i0|c134|p2;PG}
 73
     1
 44
1.0
1001
ACAD
1000
MTEXTBEGIN
1070
    73
1070
     1
1070
    44
1040
1.0
1070
    74
1070
     0
1000
MTEXTEND
  0
MTEXT
  5
11AAA
330
11A79
100
AcDbEntity
  8
虚线
 62
     7
370
    18
100
AcDbMText
 10
2245.755294677034
 20
94.9428485818662
 30
0.0
 40
16.84278185759519
 41
43.74208403683896
 71
     1
 72
     5
  1
{\fSimSun|b0|i0|c134|p2;LSN}
 73
     1
 44
1.0
1001
ACAD
1000
MTEXTBEGIN
1070
    73
1070
     1
1070
    44
1040
1.0
1070
    74
1070
     0
1000
MTEXTEND
  0
MTEXT
  5
11AAB
330
11A79
100
AcDbEntity
  8
虚线
 62
     7
370
    18
100
AcDbMText
 10
2368.139859984623
 20
95.29995073346981
 30
0.0
 40
16.84278185759519
 41
47.27560986727235
 71
     1
 72
     5
  1
{\fSimSun|b0|i0|c134|p2;PG}
 73
     1
 44
1.0
1001
ACAD
1000
MTEXTBEGIN
1070
    73
1070
     1
1070
    44
1040
1.0
1070
    74
1070
     0
1000
MTEXTEND
  0
LINE
  5
11AAC
330
11A79
100
AcDbEntity
  8
0
370
    -3
100
AcDbLine
 10
2161.833976628466
 20
221.9996307629171
 30
0.0
 11
2161.833976628466
 21
160.4704222198361
 31
0.0
  0
MTEXT
  5
11AAD
330
11A79
100
AcDbEntity
  8
虚线
 62
     7
370
    18
100
AcDbMText
 10
1845.388783042035
 20
258.4896773113469
 30
0.0
 40
12.16307289198608
 41
115.2917504261921
 71
     5
 72
     5
  1
{\fSimSun|b0|i0|c134|p2;DATE}
 73
     1
 44
1.0
1001
ACAD
1000
MTEXTBEGIN
1070
    73
1070
     1
1070
    44
1040
1.0
1070
    74
1070
     0
1000
MTEXTEND
  0
MTEXT
  5
11AAE
330
11A79
100
AcDbEntity
  8
虚线
 62
     7
370
    18
100
AcDbMText
 10
1845.388783042033
 20
234.7190649654913
 30
0.0
 40
12.16307289198608
 41
115.2917504261931
 71
     5
 72
     5
  1
{\fSimSun|b0|i0|c134|p54;日 期}
 73
     1
 44
1.0
1001
ACAD
1000
MTEXTBEGIN
1070
    73
1070
     1
1070
    44
1040
1.0
1070
    74
1070
     0
1000
MTEXTEND
  0
MTEXT
  5
11AAF
330
11A79
100
AcDbEntity
  8
虚线
 62
     7
370
    18
100
AcDbMText
 10
1733.594732537225
 20
235.2291743390706
 30
0.0
 40
16.84278185759519
 41
108.2963505834231
 71
     5
 72
     5
  1
{\fSimSun|b0|i0|c134|p54;\H0.7222x;签 名}
 73
     1
 44
1.0
1001
ACAD
1000
MTEXTBEGIN
1070
    73
1070
     1
1070
    44
1040
1.0
1070
    74
1070
     0
1000
MTEXTEND
  0
MTEXT
  5
11AB0
330
11A79
100
AcDbEntity
  8
虚线
 62
     7
370
    18
100
AcDbMText
 10
1630.788576839077
 20
234.9817851128464
 30
0.0
 40
16.84278185759519
 41
97.31596081287019
 71
     5
 72
     5
  1
{\fSimSun|b0|i0|c134|p54;\H0.7222x;处 数}
 73
     1
 44
1.0
1001
ACAD
1000
MTEXTBEGIN
1070
    73
1070
     1
1070
    44
1040
1.0
1070
    74
1070
     0
1000
MTEXTEND
  0
MTEXT
  5
11AB1
330
11A79
100
AcDbEntity
  8
虚线
 62
     7
370
    18
100
AcDbMText
 10
1733.594732537227
 20
257.6338807062675
 30
0.0
 40
13.47422548607616
 41
108.2963505834203
 71
     5
 72
     5
  1
{\fSimSun|b0|i0|c134|p2;\H0.9027x;AUTOGRAPH}
 73
     1
 44
1.0
1001
ACAD
1000
MTEXTBEGIN
1070
    73
1070
     1
1070
    44
1040
1.0
1070
    74
1070
     0
1000
MTEXTEND
  0
MTEXT
  5
11AB2
330
11A79
100
AcDbEntity
  8
虚线
 62
     7
370
    18
100
AcDbMText
 10
1909.142845299058
 20
206.0570363908355
 30
0.0
 40
16.84278185759519
 41
96.43028337589592
 71
     5
 72
     5
  1
{\fSimSun|b0|i0|c134|p2;NUMBER}
 73
     1
 44
1.0
1001
ACAD
1000
MTEXTBEGIN
1070
    73
1070
     1
1070
    44
1040
1.0
1070
    74
1070
     0
1000
MTEXTEND
  0
MTEXT
  5
11AB3
330
11A79
100
AcDbEntity
  8
虚线
 62
     7
370
    18
100
AcDbMText
 10
1909.142845299058
 20
181.6192339879962
 30
0.0
 40
17.40577672473871
 41
96.43028337589592
 71
     5
 72
     5
  1
{\fSimSun|b0|i0|c134|p54;数 量}
 73
     1
 44
1.0
1001
ACAD
1000
MTEXTBEGIN
1070
    73
1070
     1
1070
    44
1040
1.0
1070
    74
1070
     0
1000
MTEXTEND
  0
LINE
  5
11AB4
330
11A79
100
AcDbEntity
  8
0
370
    -3
100
AcDbLine
 10
1903.03465825513
 20
268.3172808712988
 30
0.0
 11
1451.238824872442
 21
268.3172808712988
 31
0.0
  0
MTEXT
  5
11AB5
330
11A79
100
AcDbEntity
  8
虚线
 62
     7
370
    18
100
AcDbMText
 10
1630.788576839079
 20
257.6338807062657
 30
0.0
 40
13.47422548607616
 41
97.31596081287403
 71
     5
 72
     5
  1
{\fSimSun|b0|i0|c134|p2;\H0.9027x;POSITION}
 73
     1
 44
1.0
1001
ACAD
1000
MTEXTBEGIN
1070
    73
1070
     1
1070
    44
1040
1.0
1070
    74
1070
     0
1000
MTEXTEND
  0
MTEXT
  5
11AB6
330
11A79
100
AcDbEntity
  8
虚线
 62
     7
370
    18
100
AcDbMText
 10
1909.142845299058
 20
120.5410685462302
 30
0.0
 40
17.40577672473871
 41
96.43028337589592
 71
     5
 72
     5
  1
{\fSimSun|b0|i0|c134|p54;比 例}
 73
     1
 44
1.0
1001
ACAD
1000
MTEXTBEGIN
1070
    73
1070
     1
1070
    44
1040
1.0
1070
    74
1070
     0
1000
MTEXTEND
  0
MTEXT
  5
11AB7
330
11A79
100
AcDbEntity
  8
虚线
 62
     7
370
    18
100
AcDbMText
 10
1908.381965328635
 20
62.89559031477438
 30
0.0
 40
17.40577672473871
 41
96.4302833758956
 71
     5
 72
     5
  1
{\fSimSun|b0|i0|c134|p54;版 次}
 73
     1
 44
1.0
1001
ACAD
1000
MTEXTBEGIN
1070
    73
1070
     1
1070
    44
1040
1.0
1070
    74
1070
     0
1000
MTEXTEND
  0
LINE
  5
11AB8
330
11A79
100
AcDbEntity
  8
0
370
    -3
100
AcDbLine
 10
1957.357986987008
 20
221.999630762908
 30
0.0
 11
1957.357986987008
 21
44.99999651371581
 31
0.0
  0
MTEXT
  5
11AB9
330
11A79
100
AcDbEntity
  8
虚线
 62
     7
370
    18
100
AcDbMText
 10
1909.14284529906
 20
84.47668058743875
 30
0.0
 40
16.84278185759519
 41
96.43028337589644
 71
     5
 72
     5
  1
{\fSimSun|b0|i0|c134|p2;REV.} 
 73
     1
 44
1.0
1001
ACAD
1000
MTEXTBEGIN
1070
    73
1070
     1
1070
    44
1040
1.0
1070
    74
1070
     0
1000
MTEXTEND
  0
LINE
  5
11ABA
330
11A79
100
AcDbEntity
  8
0
370
    -3
100
AcDbLine
 10
1860.927703611112
 20
221.999630762908
 30
0.0
 11
1860.927703611112
 21
44.99999651371581
 31
0.0
  0
LINE
  5
11ABB
330
11A79
100
AcDbEntity
  8
0
370
    -3
100
AcDbLine
 10
1700.772944286198
 20
221.999630762908
 30
0.0
 11
1700.772944286178
 21
44.99999651371581
 31
0.0
  0
MTEXT
  5
11ABC
330
11A79
100
AcDbEntity
  8
虚线
 62
     7
370
    18
100
AcDbMText
 10
1909.142845299058
 20
144.2455438269226
 30
0.0
 40
16.84278185759519
 41
96.43028337589548
 71
     5
 72
     5
  1
{\fSimSun|b0|i0|c134|p2;SCALE}
 73
     1
 44
1.0
1001
ACAD
1000
MTEXTBEGIN
1070
    73
1070
     1
1070
    44
1040
1.0
1070
    74
1070
     0
1000
MTEXTEND
  0
LINE
  5
11ABD
330
11A79
100
AcDbEntity
  8
0
370
    -3
100
AcDbLine
 10
2415.415469851896
 20
98.94121367675689
 30
0.0
 11
1451.238824872442
 21
98.94121367675689
 31
0.0
  0
LINE
  5
11ABE
330
11A79
100
AcDbEntity
  8
0
370
    -3
100
AcDbLine
 10
2415.415469851896
 20
160.4704222198361
 30
0.0
 11
1451.238824872442
 21
160.4704222198361
 31
0.0
  0
MTEXT
  5
11ABF
330
11A79
100
AcDbEntity
  8
虚线
 62
     7
370
    18
100
AcDbMText
 10
2002.092294379167
 20
73.30073648373218
 30
0.0
 40
18.0
 41
89.46861478431975
 71
     5
 72
     5
  1
{\fSimSun|b0|i0|c134|p2;A/0}
 73
     1
 44
1.0
1001
ACAD
1000
MTEXTBEGIN
1070
    73
1070
     1
1070
    44
1040
1.0
1070
    74
1070
     0
1000
MTEXTEND
  0
LINE
  5
11AC0
330
11A79
100
AcDbEntity
  8
0
370
    -3
100
AcDbLine
 10
2415.415469851896
 20
221.999630762908
 30
0.0
 11
1451.238824872442
 21
221.999630762908
 31
0.0
  0
LINE
  5
11AC1
330
11A79
100
AcDbEntity
  8
0
370
    -3
100
AcDbLine
 10
1903.03465825513
 20
442.8522921488183
 30
0.0
 11
1903.03465825513
 21
221.999630762908
 31
0.0
  0
LINE
  5
11AC2
330
11A79
100
AcDbEntity
  8
0
370
    -3
100
AcDbLine
 10
1787.74290782894
 20
336.6366569202655
 30
0.0
 11
1787.742907828935
 21
221.999630762908
 31
0.0
  0
LINE
  5
11AC3
330
11A79
100
AcDbEntity
  8
0
370
    -3
100
AcDbLine
 10
1679.44655724553
 20
336.6366569202655
 30
0.0
 11
1679.446557245508
 21
221.999630762908
 31
0.0
  0
LINE
  5
11AC4
330
11A79
100
AcDbEntity
  8
0
370
    60
100
AcDbLine
 10
112.5000280146014
 20
44.99999651371581
 30
0.0
 11
2415.415469851896
 21
44.99999651371581
 31
0.0
  0
MTEXT
  5
11AC5
330
11A79
100
AcDbEntity
  8
标注线
  6
Continuous
100
AcDbMText
 10
2159.225064053515
 20
281.1358055249911
 30
0.0
 40
30.0
 41
512.3808115967664
 71
     5
 72
     5
  1
{\C7;HA104-5\fSimSun|b0|i0|c134|p54;产品图}
 73
     1
 44
1.0
1001
ACAD
1000
ACAD_MTEXT_DEFINED_HEIGHT_BEGIN
1070
    46
1040
0.0
1000
ACAD_MTEXT_DEFINED_HEIGHT_END
1000
MTEXTBEGIN
1070
    73
1070
     1
1070
    44
1040
1.0
1070
    74
1070
     0
1000
MTEXTEND
  0
LINE
  5
11AC6
330
11A79
100
AcDbEntity
  8
0
370
    60
100
AcDbLine
 10
2460.415469851896
 20
1710.831297496721
 30
0.0
 11
2460.41546985188
 21
-0.0000034862841858
 31
0.0
  0
LINE
  5
11AC7
330
11A79
100
AcDbEntity
  8
0
370
    60
100
AcDbLine
 10
0.000028014595955
 20
-0.0000034862841858
 30
0.0
 11
2460.41546985188
 21
-0.0000034862841858
 31
0.0
  0
MTEXT
  5
11AC8
330
11A79
100
AcDbEntity
  8
虚线
 62
     7
370
    18
100
AcDbMText
 10
2288.624723240181
 20
192.5281127183843
 30
0.0
 40
21.6
 41
253.5814932234307
 71
     5
 72
     5
  1
{\fSimSun|b0|i0|c134|p2;T=1.5mm  SUS304}
 73
     1
 44
1.0
1001
ACAD
1000
MTEXTBEGIN
1070
    73
1070
     1
1070
    44
1040
1.0
1070
    74
1070
     0
1000
MTEXTEND
  0
MTEXT
  5
11AC9
330
11A79
100
AcDbEntity
  8
虚线
 62
     7
370
    18
100
AcDbMText
 10
2087.633422074097
 20
363.9187818973751
 30
0.0
 40
19.2
 41
141.7428682241719
 71
     5
 72
     5
  1
HA104-5
 73
     1
 44
1.0
1001
ACAD
1000
ACAD_MTEXT_DEFINED_HEIGHT_BEGIN
1070
    46
1040
0.0
1000
ACAD_MTEXT_DEFINED_HEIGHT_END
1000
MTEXTBEGIN
1070
    73
1070
     1
1070
    44
1040
1.0
1070
    74
1070
     0
1000
MTEXTEND
  0
MTEXT
  5
11ACA
330
11A79
100
AcDbEntity
  8
标注线
  6
Continuous
 62
     7
100
AcDbMText
 10
1677.136741563787
 20
404.7454556744415
 30
0.0
 40
31.10400000000001
 41
451.7958333826878
 71
     5
 72
     5
  1
{\fSimSun|b0|i0|c134|p54;东原厨具实业有限公司}
 73
     1
 44
1.0
1001
ACAD
1000
MTEXTBEGIN
1070
    73
1070
     1
1070
    44
1040
1.0
1070
    74
1070
     0
1000
MTEXTEND
  0
MTEXT
  5
11ACB
330
11A79
100
AcDbEntity
  8
虚线
 62
     7
370
    18
100
AcDbMText
 10
1677.136741563787
 20
358.8538477322745
 30
0.0
 40
15.84
 41
451.7958333826884
 71
     5
 72
     5
  1
{\fSimSun|b0|i0|c134|p2;DONGYUAN KITCHENWARE INDUSTRIAL CO.,LTD}
 73
     1
 44
1.0
1001
ACAD
1000
MTEXTBEGIN
1070
    73
1070
     1
1070
    44
1040
1.0
1070
    74
1070
     0
1000
MTEXTEND
  0
MTEXT
  5
11ACC
330
11A79
100
AcDbEntity
  8
虚线
 62
     7
370
    18
100
AcDbMText
 10
1625.737566570242
 20
190.4828518180184
 30
0.0
 40
24.0
 41
150.0707554319055
 71
     5
 72
     5
  1
{\fSimSun|b0|i0|c134|p2;Fred}
 73
     1
 44
1.0
1001
ACAD
1000
MTEXTBEGIN
1070
    73
1070
     1
1070
    44
1040
1.0
1070
    74
1070
     0
1000
MTEXTEND
  0
MTEXT
  5
11ACD
330
11A79
100
AcDbEntity
  8
虚线
 62
     7
370
    18
100
AcDbMText
 10
1780.850323948653
 20
188.7722839026755
 30
0.0
 40
18.0
 41
160.154759324917
 71
     5
 72
     5
  1
2008.11.5
 73
     1
 44
1.0
1001
ACAD
1000
ACAD_MTEXT_DEFINED_HEIGHT_BEGIN
1070
    46
1040
0.0
1000
ACAD_MTEXT_DEFINED_HEIGHT_END
1000
MTEXTBEGIN
1070
    73
1070
     1
1070
    44
1040
1.0
1070
    74
1070
     0
1000
MTEXTEND
  0
MTEXT
  5
11ACE
330
11A79
100
AcDbEntity
  8
虚线
 62
     7
370
    18
100
AcDbMText
 10
2135.038512038823
 20
68.56898227695819
 30
0.0
 40
17.40577672473871
 41
11.76128420145771
 71
     1
 72
     5
  1
{\fSimSun|b0|i0|c134|p2;1}
 73
     1
 44
1.0
1001
ACAD
1000
MTEXTBEGIN
1070
    73
1070
     1
1070
    44
1040
1.0
1070
    74
1070
     0
1000
MTEXTEND
  0
MTEXT
  5
11ACF
330
11A79
100
AcDbEntity
  8
虚线
 62
     7
370
    18
100
AcDbMText
 10
2318.241510902659
 20
67.93086398472041
 30
0.0
 40
17.40577672473871
 41
13.25981969474146
 71
     1
 72
     5
  1
{\fSimSun|b0|i0|c134|p2;1}
 73
     1
 44
1.0
1001
ACAD
1000
MTEXTBEGIN
1070
    73
1070
     1
1070
    44
1040
1.0
1070
    74
1070
     0
1000
MTEXTEND
  0
MTEXT
  5
11AD0
330
11A79
100
AcDbEntity
  8
虚线
 62
     7
370
    18
100
AcDbMText
 10
2216.088728906949
 20
415.2026575625041
 30
0.0
 40
19.2
 41
398.6534818898945
 71
     5
 72
     5
  1
{\fTimes New Roman|b0|i0|c134|p18;HA\fSimSun|b0|i0|c134|p6;直角手工盆}
 73
     1
 44
1.0
1001
ACAD
1000
MTEXTBEGIN
1070
    73
1070
     1
1070
    44
1040
1.0
1070
    74
1070
     0
1000
MTEXTEND
  0
LINE
  5
11AD1
330
11A79
100
AcDbEntity
  8
0
370
    60
100
AcDbLine
 10
2415.415469851896
 20
1665.831297496721
 30
0.0
 11
112.5000280146014
 21
1665.831297496723
 31
0.0
  0
LINE
  5
11AD2
330
11A79
100
AcDbEntity
  8
0
370
    60
100
AcDbLine
 10
112.5000280146014
 20
44.99999651371581
 30
0.0
 11
112.5000280146014
 21
1665.831297496723
 31
0.0
  0
LINE
  5
11AD3
330
11A79
100
AcDbEntity
  8
0
370
    60
100
AcDbLine
 10
2460.415469851896
 20
1710.831297496721
 30
0.0
 11
0.000028014595955
 21
1710.831297496721
 31
0.0
  0
LINE
  5
11AD4
330
11A79
100
AcDbEntity
  8
0
370
    60
100
AcDbLine
 10
0.000028014595955
 20
-0.0000034862841858
 30
0.0
 11
0.000028014595955
 21
1710.831297496721
 31
0.0
  0
ENDBLK
  5
11AD6
330
11A79
100
AcDbEntity
  8
0
100
AcDbBlockEnd
  0
BLOCK
  5
186C8
330
186C7
100
AcDbEntity
  8
0
100
AcDbBlockBegin
  2
d
 70
     0
 10
0.0
 20
0.0
 30
0.0
  3
d
  1

  0
MTEXT
  5
186C9
330
186C7
100
AcDbEntity
  8
标注
100
AcDbMText
 10
31046.58346055569
 20
-2171.641170369011
 30
0.0
 40
28.0
 41
246.3067571897336
 71
     1
 72
     5
  3
{\fArial|b0|i1|c0|p32;r\fArial Narrow|b0|i1|c0|p34;\H0.375x; \fArial|b0|i1|c0|p32;\H2.667x;u\fArial Narrow|b0|i1|c0|p34;\H0.375x; \fArial|b0|i1|c0|p32;\H2.667x;b\fArial Narrow|b0|i1|c0|p34;\H0.375x; \fArial|b0|i1|c0|p32;\H2.667x;i\fArial Narrow|b0|i1
  3
|c0|p34;\H0.375x; \fArial|b0|i1|c0|p32;\H2.667x;n\fArial Narrow|b0|i1|c0|p34;\H0.375x; \fArial|b0|i1|c0|p32;\H2.667x;e\fArial Narrow|b0|i1|c0|p34;\H0.375x; \fArial|b0|i1|c0|p32;\H2.667x;t\fArial Narrow|b0|i1|c0|p34;\H0.375x; \fArial|b0|i1|c0|p32;\H2.
  3
667x;t\fArial Narrow|b0|i1|c0|p34;\H0.375x; \fArial|b0|i1|c0|p32;\H2.667x;e\fArial Narrow|b0|i1|c0|p34;\H0.375x; \fArial|b0|i1|c0|p32;\H2.667x;r\fArial Narrow|b0|i1|c0|p34;\H0.375x; \fArial|b0|i1|c0|p32;\H2.667x;i\fArial Narrow|b0|i1|c0|p34;\H0.375x;
  1
 \fArial|b0|i1|c0|p32;\H2.667x;e}
 73
     1
 44
1.0
1001
ACAD
1000
MTEXTBEGIN
1070
    73
1070
     1
1070
    44
1040
1.0
1070
    74
1070
     0
1000
MTEXTEND
  0
MTEXT
  5
186CA
330
186C7
100
AcDbEntity
  8
标注
100
AcDbMText
 10
31006.85385016287
 20
-2139.936490892955
 30
0.0
 40
28.0
 41
180.6113363734257
 71
     1
 72
     5
  1
{\fArial|b0|i1|c0|p34;D\fArial Narrow|b0|i1|c0|p34;\H0.375x; \fArial|b0|i1|c0|p34;\H2.667x;i\fArial Narrow|b0|i1|c0|p34;\H0.375x; \fArial|b0|i1|c0|p34;\H2.667x;o\fArial Narrow|b0|i1|c0|p34;\H0.375x; \fArial|b0|i1|c0|p34;\H2.667x;r}
 73
     1
 44
1.0
1001
ACAD
1000
MTEXTBEGIN
1070
    73
1070
     1
1070
    44
1040
1.0
1070
    74
1070
     0
1000
MTEXTEND
  0
ENDBLK
  5
186CB
330
186C7
100
AcDbEntity
  8
0
100
AcDbBlockEnd
  0
BLOCK
  5
1900C
330
18FB0
100
AcDbEntity
  8
0
100
AcDbBlockBegin
  2
A$C77D25CEF
 70
     0
 10
0.0
 20
0.0
 30
0.0
  3
A$C77D25CEF
  1

  0
MTEXT
  5
18FB1
330
18FB0
100
AcDbEntity
  8
虚线
 62
     7
370
    18
100
AcDbMText
 10
1167.847208268313
 20
199.3410285801474
 30
0.0
 40
10.37515362427864
 41
100.7866641013535
 71
     5
 72
     5
  1
{\fSimSun|b0|i0|c134|p2;\H0.9027x;UPDATE SYMBOL}
 73
     1
 44
1.0
1001
ACAD
1000
MTEXTBEGIN
1070
    73
1070
     1
1070
    44
1040
1.0
1070
    74
1070
     0
1000
MTEXTEND
  0
MTEXT
  5
18FB2
330
18FB0
100
AcDbEntity
  8
虚线
 62
     7
370
    18
100
AcDbMText
 10
1167.847208268313
 20
180.8231730363295
 30
0.0
 40
12.9689420303483
 41
100.7866641013526
 71
     5
 72
     5
  1
{\fSimSun|b0|i0|c134|p54;\H0.7222x;更改   标记}
 73
     1
 44
1.0
1001
ACAD
1000
MTEXTBEGIN
1070
    73
1070
     1
1070
    44
1040
1.0
1070
    74
1070
     0
1000
MTEXTEND
  0
MTEXT
  5
18FB3
330
18FB0
100
AcDbEntity
  8
虚线
 62
     7
370
    18
100
AcDbMText
 10
1155.747271350648
 20
158.0998064103642
 30
0.0
 40
12.9689420303483
 41
76.58679026602166
 71
     5
 72
     5
  1
{\fSimSun|b0|i0|c134|p2;DWN.}
 73
     1
 44
1.0
1001
ACAD
1000
MTEXTBEGIN
1070
    73
1070
     1
1070
    44
1040
1.0
1070
    74
1070
     0
1000
MTEXTEND
  0
MTEXT
  5
18FB4
330
18FB0
100
AcDbEntity
  8
虚线
 62
     7
370
    18
100
AcDbMText
 10
1155.747271350648
 20
137.5607012095497
 30
0.0
 40
13.40244807804881
 41
76.58679026602197
 71
     5
 72
     5
  1
{\fSimSun|b0|i0|c134|p54;制 图}
 73
     1
 44
1.0
1001
ACAD
1000
MTEXTBEGIN
1070
    73
1070
     1
1070
    44
1040
1.0
1070
    74
1070
     0
1000
MTEXTEND
  0
MTEXT
  5
18FB5
330
18FB0
100
AcDbEntity
  8
0
370
    -3
100
AcDbMText
 10
1155.747271350648
 20
89.38611809702161
 30
0.0
 40
13.40244807804881
 41
76.58679026602166
 71
     5
 72
     5
  1
{\fSimSun|b0|i0|c134|p54;\C7;审 核}
 73
     1
 44
1.0
1001
ACAD
1000
MTEXTBEGIN
1070
    73
1070
     1
1070
    44
1040
1.0
1070
    74
1070
     0
1000
MTEXTEND
  0
MTEXT
  5
18FB6
330
18FB0
100
AcDbEntity
  8
虚线
 62
     7
370
    18
100
AcDbMText
 10
1155.747271350648
 20
48.13719065291298
 30
0.0
 40
13.40244807804881
 41
76.58679026602155
 71
     5
 72
     5
  1
{\fSimSun|b0|i0|c134|p54;批 准}
 73
     1
 44
1.0
1001
ACAD
1000
MTEXTBEGIN
1070
    73
1070
     1
1070
    44
1040
1.0
1070
    74
1070
     0
1000
MTEXTEND
  0
MTEXT
  5
18FB7
330
18FB0
100
AcDbEntity
  8
虚线
370
    18
100
AcDbMText
 10
1155.747271350648
 20
67.46014948894298
 30
0.0
 40
12.9689420303483
 41
76.58679026602162
 71
     5
 72
     5
  1
{\fSimSun|b0|i0|c134|p2;\C7;APPD.}
 73
     1
 44
1.0
1001
ACAD
1000
MTEXTBEGIN
1070
    73
1070
     1
1070
    44
1040
1.0
1070
    74
1070
     0
1000
MTEXTEND
  0
LINE
  5
18FB8
330
18FB0
100
AcDbEntity
  8
0
370
    -3
100
AcDbLine
 10
1194.040666483657
 20
170.9397095871481
 30
0.0
 11
1194.040666483657
 21
34.64999121525034
 31
0.0
  0
MTEXT
  5
18FB9
330
18FB0
100
AcDbEntity
  8
0
370
    -3
100
AcDbMText
 10
1155.747271350648
 20
111.9908480274789
 30
0.0
 40
12.9689420303483
 41
76.58679026602162
 71
     5
 72
     5
  1
{\fSimSun|b0|i0|c134|p2;\C7;CKD.}
 73
     1
 44
1.0
1001
ACAD
1000
MTEXTBEGIN
1070
    73
1070
     1
1070
    44
1040
1.0
1070
    74
1070
     0
1000
MTEXTEND
  0
LINE
  5
18FBA
330
18FB0
100
AcDbEntity
  8
0
370
    60
100
AcDbLine
 10
1117.453876217636
 20
340.9962588542803
 30
0.0
 11
1117.453876217636
 21
34.64999121525034
 31
0.0
  0
LINE
  5
18FBB
330
18FB0
100
AcDbEntity
  8
0
370
    -3
100
AcDbLine
 10
1218.240540318993
 20
259.2102197282947
 30
0.0
 11
1218.240540318989
 21
170.93970958713
 31
0.0
  0
LINE
  5
18FBC
330
18FB0
100
AcDbEntity
  8
中心线
370
    -3
100
AcDbLine
 10
1779.614664471935
 20
100.5881273057366
 30
0.0
 11
1649.730376864865
 21
100.5881273057366
 31
0.0
  0
MTEXT
  5
18FBD
330
18FB0
100
AcDbEntity
  8
虚线
 62
     7
370
    18
100
AcDbMText
 10
1541.611047737815
 20
148.4235819947935
 30
0.0
 40
13.86
 41
68.8908333839262
 71
     5
 72
     5
  1
{\fSimSun|b0|i0|c134|p2;1件}
 73
     1
 44
1.0
1001
ACAD
1000
MTEXTBEGIN
1070
    73
1070
     1
1070
    44
1040
1.0
1070
    74
1070
     0
1000
MTEXTEND
  0
MTEXT
  5
18FBE
330
18FB0
100
AcDbEntity
  8
虚线
 62
     7
370
    18
100
AcDbMText
 10
1620.334303749776
 20
159.7351437353482
 30
0.0
 40
12.9689420303483
 41
88.55567863999722
 71
     5
 72
     5
  1
{\fSimSun|b0|i0|c134|p2;MATERIAL}
 73
     1
 44
1.0
1001
ACAD
1000
MTEXTBEGIN
1070
    73
1070
     1
1070
    44
1040
1.0
1070
    74
1070
     0
1000
MTEXTEND
  0
MTEXT
  5
18FBF
330
18FB0
100
AcDbEntity
  8
虚线
 62
     7
370
    18
100
AcDbMText
 10
1620.334303749776
 20
138.3261781549263
 30
0.0
 40
13.40244807804881
 41
88.55567863999722
 71
     5
 72
     5
  1
{\fSimSun|b0|i0|c134|p54;材 料}
 73
     1
 44
1.0
1001
ACAD
1000
MTEXTBEGIN
1070
    73
1070
     1
1070
    44
1040
1.0
1070
    74
1070
     0
1000
MTEXTEND
  0
LINE
  5
18FC0
330
18FB0
100
AcDbEntity
  8
0
370
    -3
100
AcDbLine
 10
1576.056464429777
 20
170.93970958713
 30
0.0
 11
1576.056464429777
 21
34.64999121525034
 31
0.0
  0
LINE
  5
18FC1
330
18FB0
100
AcDbEntity
  8
0
370
    60
100
AcDbLine
 10
1859.869892851815
 20
1282.690092972167
 30
0.0
 11
1859.869892851815
 21
34.64999121525034
 31
0.0
  0
MTEXT
  5
18FC2
330
18FB0
100
AcDbEntity
  8
虚线
 62
     7
370
    18
100
AcDbMText
 10
1710.682252942997
 20
291.9990928456045
 30
0.0
 40
10.37515362427864
 41
97.2670652275605
 71
     5
 72
     5
  1
{\fSimSun|b0|i0|c134|p2;MODEL NO.}
 73
     1
 44
1.0
1001
ACAD
1000
MTEXTBEGIN
1070
    73
1070
     1
1070
    44
1040
1.0
1070
    74
1070
     0
1000
MTEXTEND
  0
MTEXT
  5
18FC3
330
18FB0
100
AcDbEntity
  8
虚线
 62
     7
370
    18
100
AcDbMText
 10
1710.682252942997
 20
273.4077259434125
 30
0.0
 40
13.40244807804881
 41
97.26706522756046
 71
     5
 72
     5
  1
{\fSimSun|b0|i0|c134|p2;型 号}
 73
     1
 44
1.0
1001
ACAD
1000
MTEXTBEGIN
1070
    73
1070
     1
1070
    44
1040
1.0
1070
    74
1070
     0
1000
MTEXTEND
  0
LINE
  5
18FC4
330
18FB0
100
AcDbEntity
  8
0
370
    -3
100
AcDbLine
 10
1662.048720329216
 20
300.103239291313
 30
0.0
 11
1662.048720329216
 21
259.2102197282947
 31
0.0
  0
LINE
  5
18FC5
330
18FB0
100
AcDbEntity
  8
0
370
    -3
100
AcDbLine
 10
1759.315785556779
 20
300.103239291313
 30
0.0
 11
1759.315785556779
 21
259.2102197282947
 31
0.0
  0
MTEXT
  5
18FC6
330
18FB0
100
AcDbEntity
  8
虚线
 62
     7
370
    18
100
AcDbMText
 10
1509.121689859452
 20
312.3488745553786
 30
0.0
 40
13.40244807804881
 41
87.57004387429594
 71
     5
 72
     5
  1
{\fSimSun|b0|i0|c134|p54;描 述}
 73
     1
 44
1.0
1001
ACAD
1000
MTEXTBEGIN
1070
    73
1070
     1
1070
    44
1040
1.0
1070
    74
1070
     0
1000
MTEXTEND
  0
MTEXT
  5
18FC7
330
18FB0
100
AcDbEntity
  8
虚线
 62
     7
370
    18
100
AcDbMText
 10
1509.121689859456
 20
291.9608372992643
 30
0.0
 40
10.37515362427864
 41
87.57004387429724
 71
     5
 72
     5
  1
{\fSimSun|b0|i0|c134|p2;DWG. NO.}
 73
     1
 44
1.0
1001
ACAD
1000
MTEXTBEGIN
1070
    73
1070
     1
1070
    44
1040
1.0
1070
    74
1070
     0
1000
MTEXTEND
  0
MTEXT
  5
18FC8
330
18FB0
100
AcDbEntity
  8
虚线
 62
     7
370
    18
100
AcDbMText
 10
1509.121689859456
 20
274.5979678432523
 30
0.0
 40
13.40244807804881
 41
87.57004387429994
 71
     5
 72
     5
  1
{\fSimSun|b0|i0|c134|p54;图 号}
 73
     1
 44
1.0
1001
ACAD
1000
MTEXTBEGIN
1070
    73
1070
     1
1070
    44
1040
1.0
1070
    74
1070
     0
1000
MTEXTEND
  0
LINE
  5
18FC9
330
18FB0
100
AcDbEntity
  8
0
370
    -3
100
AcDbLine
 10
1465.336667922305
 20
232.2573466880676
 30
0.0
 11
1117.453876217636
 21
232.2573466880585
 31
0.0
  0
LINE
  5
18FCA
330
18FB0
100
AcDbEntity
  8
0
370
    -3
100
AcDbLine
 10
1465.336667922305
 20
259.2102197282947
 30
0.0
 11
1117.453876217636
 21
259.2102197282947
 31
0.0
  0
LINE
  5
18FCB
330
18FB0
100
AcDbEntity
  8
0
370
    -3
100
AcDbLine
 10
1552.906711796595
 20
340.9962588542803
 30
0.0
 11
1552.90671179661
 21
259.2102197282911
 31
0.0
  0
MTEXT
  5
18FCC
330
18FB0
100
AcDbEntity
  8
虚线
 62
     7
370
    18
100
AcDbMText
 10
1509.121689859452
 20
332.2638717274276
 30
0.0
 40
10.37515362427864
 41
87.57004387429175
 71
     5
 72
     5
  1
{\fSimSun|b0|i0|c134|p2;DESCRIPTION}
 73
     1
 44
1.0
1001
ACAD
1000
MTEXTBEGIN
1070
    73
1070
     1
1070
    44
1040
1.0
1070
    74
1070
     0
1000
MTEXTEND
  0
LINE
  5
18FCD
330
18FB0
100
AcDbEntity
  8
0
370
    -3
100
AcDbLine
 10
1859.869892851815
 20
259.2102197282947
 30
0.0
 11
1465.336667922305
 21
259.2102197282947
 31
0.0
  0
LINE
  5
18FCE
330
18FB0
100
AcDbEntity
  8
0
370
    -3
100
AcDbLine
 10
1859.869892851815
 20
300.1032392912875
 30
0.0
 11
1465.336667922305
 21
300.1032392912875
 31
0.0
  0
LINE
  5
18FCF
330
18FB0
100
AcDbEntity
  8
0
370
    60
100
AcDbLine
 10
1859.869892851815
 20
340.9962588542803
 30
0.0
 11
1117.453876217636
 21
340.9962588542803
 31
0.0
  0
LINE
  5
18FD0
330
18FB0
100
AcDbEntity
  8
0
370
    -3
100
AcDbLine
 10
1716.434004587434
 20
86.56766345556752
 30
0.0
 11
1716.434004587434
 21
114.7038652938427
 31
0.0
  0
CIRCLE
  5
18FD1
330
18FB0
100
AcDbEntity
  8
0
370
    -3
100
AcDbCircle
 10
1761.351225158547
 20
100.5881273057366
 30
0.0
 40
14.02046385016895
  0
CIRCLE
  5
18FD2
330
18FB0
100
AcDbEntity
  8
0
370
    -3
100
AcDbCircle
 10
1761.351225158547
 20
100.5881273057366
 30
0.0
 40
7.010231925084475
  0
LINE
  5
18FD3
330
18FB0
100
AcDbEntity
  8
中心线
370
    -3
100
AcDbLine
 10
1761.351225158547
 20
82.32468799235538
 30
0.0
 11
1761.351225158547
 21
118.851566619116
 31
0.0
  0
MTEXT
  5
18FD4
330
18FB0
100
AcDbEntity
  8
虚线
 62
     7
370
    18
100
AcDbMText
 10
1541.611047737815
 20
100.7255369071681
 30
0.0
 40
13.86
 41
68.8908333839262
 71
     5
 72
     5
  1
{\fSimSun|b0|i0|c134|p2;1:1}
 73
     1
 44
1.0
1001
ACAD
1000
MTEXTBEGIN
1070
    73
1070
     1
1070
    44
1040
1.0
1070
    74
1070
     0
1000
MTEXTEND
  0
LINE
  5
18FD5
330
18FB0
100
AcDbEntity
  8
0
370
    -3
100
AcDbLine
 10
1655.461662732372
 20
93.57789538064935
 30
0.0
 11
1655.461662732372
 21
107.6139192226001
 31
0.0
  0
LINE
  5
18FD6
330
18FB0
100
AcDbEntity
  8
0
370
    -3
100
AcDbLine
 10
1716.434004587434
 20
86.56766345556752
 30
0.0
 11
1655.461662732372
 21
93.57789538064935
 31
0.0
  0
LINE
  5
18FD7
330
18FB0
100
AcDbEntity
  8
0
370
    -3
100
AcDbLine
 10
1655.461662732372
 20
107.6139192226001
 30
0.0
 11
1716.434004587434
 21
114.7038652938427
 31
0.0
  0
MTEXT
  5
18FD8
330
18FB0
100
AcDbEntity
  8
虚线
 62
     7
370
    18
100
AcDbMText
 10
1732.849848416228
 20
56.92227864913184
 30
0.0
 40
13.40244807804881
 41
25.88593023015731
 71
     1
 72
     5
  1
{\fSimSun|b0|i0|c134|p54;第}
 73
     1
 44
1.0
1001
ACAD
1000
MTEXTBEGIN
1070
    73
1070
     1
1070
    44
1040
1.0
1070
    74
1070
     0
1000
MTEXTEND
  0
MTEXT
  5
18FD9
330
18FB0
100
AcDbEntity
  8
虚线
 62
     7
370
    18
100
AcDbMText
 10
1772.909233116119
 20
53.81781498694909
 30
0.0
 40
13.40244807804881
 41
40.81793527343664
 71
     1
 72
     5
  1
{\fSimSun|b0|i0|c134|p2;(  )}
 73
     1
 44
1.0
1001
ACAD
1000
MTEXTBEGIN
1070
    73
1070
     1
1070
    44
1040
1.0
1070
    74
1070
     0
1000
MTEXTEND
  0
MTEXT
  5
18FDA
330
18FB0
100
AcDbEntity
  8
虚线
 62
     7
370
    18
100
AcDbMText
 10
1822.569763461061
 20
56.53871857536069
 30
0.0
 40
13.40244807804881
 41
37.30012939075567
 71
     1
 72
     5
  1
{\fSimSun|b0|i0|c134|p54;页}
 73
     1
 44
1.0
1001
ACAD
1000
MTEXTBEGIN
1070
    73
1070
     1
1070
    44
1040
1.0
1070
    74
1070
     0
1000
MTEXTEND
  0
MTEXT
  5
18FDB
330
18FB0
100
AcDbEntity
  8
虚线
 62
     7
370
    18
100
AcDbMText
 10
1686.366084178642
 20
56.25675167595182
 30
0.0
 40
13.40244807804881
 41
23.41983335230793
 71
     1
 72
     5
  1
{\fSimSun|b0|i0|c134|p54;页}
 73
     1
 44
1.0
1001
ACAD
1000
MTEXTBEGIN
1070
    73
1070
     1
1070
    44
1040
1.0
1070
    74
1070
     0
1000
MTEXTEND
  0
MTEXT
  5
18FDC
330
18FB0
100
AcDbEntity
  8
虚线
 62
     7
370
    18
100
AcDbMText
 10
1631.481256902543
 20
54.48941236552673
 30
0.0
 40
13.40244807804881
 41
44.26421375328346
 71
     1
 72
     5
  1
{\fSimSun|b0|i0|c134|p2;(  )}
 73
     1
 44
1.0
1001
ACAD
1000
MTEXTBEGIN
1070
    73
1070
     1
1070
    44
1040
1.0
1070
    74
1070
     0
1000
MTEXTEND
  0
MTEXT
  5
18FDD
330
18FB0
100
AcDbEntity
  8
虚线
 62
     7
370
    18
100
AcDbMText
 10
1585.066819051555
 20
56.45045387920617
 30
0.0
 40
13.40244807804881
 41
26.26254123795437
 71
     1
 72
     5
  1
{\fSimSun|b0|i0|c134|p54;共}
 73
     1
 44
1.0
1001
ACAD
1000
MTEXTBEGIN
1070
    73
1070
     1
1070
    44
1040
1.0
1070
    74
1070
     0
1000
MTEXTEND
  0
MTEXT
  5
18FDE
330
18FB0
100
AcDbEntity
  8
虚线
 62
     7
370
    18
100
AcDbMText
 10
1582.287737348057
 20
73.86657014612683
 30
0.0
 40
12.9689420303483
 41
36.33118574990459
 71
     1
 72
     5
  1
{\fSimSun|b0|i0|c134|p2;ALL}
 73
     1
 44
1.0
1001
ACAD
1000
MTEXTBEGIN
1070
    73
1070
     1
1070
    44
1040
1.0
1070
    74
1070
     0
1000
MTEXTEND
  0
MTEXT
  5
18FDF
330
18FB0
100
AcDbEntity
  8
虚线
 62
     7
370
    18
100
AcDbMText
 10
1686.65597856621
 20
73.33495324103023
 30
0.0
 40
12.9689420303483
 41
21.79147238067483
 71
     1
 72
     5
  1
{\fSimSun|b0|i0|c134|p2;PG}
 73
     1
 44
1.0
1001
ACAD
1000
MTEXTBEGIN
1070
    73
1070
     1
1070
    44
1040
1.0
1070
    74
1070
     0
1000
MTEXTEND
  0
MTEXT
  5
18FE0
330
18FB0
100
AcDbEntity
  8
虚线
 62
     7
370
    18
100
AcDbMText
 10
1729.231557967172
 20
73.10598730772835
 30
0.0
 40
12.9689420303483
 41
33.681404708366
 71
     1
 72
     5
  1
{\fSimSun|b0|i0|c134|p2;LSN}
 73
     1
 44
1.0
1001
ACAD
1000
MTEXTBEGIN
1070
    73
1070
     1
1070
    44
1040
1.0
1070
    74
1070
     0
1000
MTEXTEND
  0
MTEXT
  5
18FE1
330
18FB0
100
AcDbEntity
  8
虚线
 62
     7
370
    18
100
AcDbMText
 10
1823.467673254015
 20
73.38095596446146
 30
0.0
 40
12.9689420303483
 41
36.40221959779971
 71
     1
 72
     5
  1
{\fSimSun|b0|i0|c134|p2;PG}
 73
     1
 44
1.0
1001
ACAD
1000
MTEXTBEGIN
1070
    73
1070
     1
1070
    44
1040
1.0
1070
    74
1070
     0
1000
MTEXTEND
  0
LINE
  5
18FE2
330
18FB0
100
AcDbEntity
  8
0
370
    -3
100
AcDbLine
 10
1664.612143069773
 20
170.9397095871354
 30
0.0
 11
1664.612143069773
 21
123.5622190089634
 31
0.0
  0
MTEXT
  5
18FE3
330
18FB0
100
AcDbEntity
  8
虚线
 62
     7
370
    18
100
AcDbMText
 10
1420.949344008222
 20
199.0370454294279
 30
0.0
 40
9.365566126829287
 41
88.77464782816797
 71
     5
 72
     5
  1
{\fSimSun|b0|i0|c134|p2;DATE}
 73
     1
 44
1.0
1001
ACAD
1000
MTEXTBEGIN
1070
    73
1070
     1
1070
    44
1040
1.0
1070
    74
1070
     0
1000
MTEXTEND
  0
MTEXT
  5
18FE4
330
18FB0
100
AcDbEntity
  8
虚线
 62
     7
370
    18
100
AcDbMText
 10
1420.94934400822
 20
180.7336739231177
 30
0.0
 40
9.365566126829287
 41
88.7746478281687
 71
     5
 72
     5
  1
{\fSimSun|b0|i0|c134|p54;日 期}
 73
     1
 44
1.0
1001
ACAD
1000
MTEXTBEGIN
1070
    73
1070
     1
1070
    44
1040
1.0
1070
    74
1070
     0
1000
MTEXTEND
  0
MTEXT
  5
18FE5
330
18FB0
100
AcDbEntity
  8
虚线
 62
     7
370
    18
100
AcDbMText
 10
1334.867925119519
 20
181.126458140774
 30
0.0
 40
12.9689420303483
 41
83.38818994923576
 71
     5
 72
     5
  1
{\fSimSun|b0|i0|c134|p54;\H0.7222x;签 名}
 73
     1
 44
1.0
1001
ACAD
1000
MTEXTBEGIN
1070
    73
1070
     1
1070
    44
1040
1.0
1070
    74
1070
     0
1000
MTEXTEND
  0
MTEXT
  5
18FE6
330
18FB0
100
AcDbEntity
  8
虚线
 62
     7
370
    18
100
AcDbMText
 10
1255.707185231944
 20
180.9359684365809
 30
0.0
 40
12.9689420303483
 41
74.93328982591005
 71
     5
 72
     5
  1
{\fSimSun|b0|i0|c134|p54;\H0.7222x;处 数}
 73
     1
 44
1.0
1001
ACAD
1000
MTEXTBEGIN
1070
    73
1070
     1
1070
    44
1040
1.0
1070
    74
1070
     0
1000
MTEXTEND
  0
MTEXT
  5
18FE7
330
18FB0
100
AcDbEntity
  8
虚线
 62
     7
370
    18
100
AcDbMText
 10
1334.867925119519
 20
198.3780820435167
 30
0.0
 40
10.37515362427864
 41
83.38818994923364
 71
     5
 72
     5
  1
{\fSimSun|b0|i0|c134|p2;\H0.9027x;AUTOGRAPH}
 73
     1
 44
1.0
1001
ACAD
1000
MTEXTBEGIN
1070
    73
1070
     1
1070
    44
1040
1.0
1070
    74
1070
     0
1000
MTEXTEND
  0
MTEXT
  5
18FE8
330
18FB0
100
AcDbEntity
  8
虚线
 62
     7
370
    18
100
AcDbMText
 10
1470.039971946133
 20
158.6639119206338
 30
0.0
 40
12.9689420303483
 41
74.25131819943986
 71
     5
 72
     5
  1
{\fSimSun|b0|i0|c134|p2;NUMBER}
 73
     1
 44
1.0
1001
ACAD
1000
MTEXTBEGIN
1070
    73
1070
     1
1070
    44
1040
1.0
1070
    74
1070
     0
1000
MTEXTEND
  0
MTEXT
  5
18FE9
330
18FB0
100
AcDbEntity
  8
虚线
 62
     7
370
    18
100
AcDbMText
 10
1469.820740559351
 20
138.3128827216514
 30
0.0
 40
13.40244807804881
 41
74.25131819943986
 71
     5
 72
     5
  1
{\fSimSun|b0|i0|c134|p54;数 量}
 73
     1
 44
1.0
1001
ACAD
1000
MTEXTBEGIN
1070
    73
1070
     1
1070
    44
1040
1.0
1070
    74
1070
     0
1000
MTEXTEND
  0
LINE
  5
18FEA
330
18FB0
100
AcDbEntity
  8
0
370
    -3
100
AcDbLine
 10
1465.336667922305
 20
206.6043001705911
 30
0.0
 11
1117.453876217636
 21
206.6043001705911
 31
0.0
  0
MTEXT
  5
18FEB
330
18FB0
100
AcDbEntity
  8
虚线
 62
     7
370
    18
100
AcDbMText
 10
1255.707185231948
 20
198.3780820435149
 30
0.0
 40
10.37515362427864
 41
74.933289825913
 71
     5
 72
     5
  1
{\fSimSun|b0|i0|c134|p2;\H0.9027x;POSITION}
 73
     1
 44
1.0
1001
ACAD
1000
MTEXTBEGIN
1070
    73
1070
     1
1070
    44
1040
1.0
1070
    74
1070
     0
1000
MTEXTEND
  0
MTEXT
  5
18FEC
330
18FB0
100
AcDbEntity
  8
虚线
 62
     7
370
    18
100
AcDbMText
 10
1470.039971946133
 20
90.63800149935559
 30
0.0
 40
13.40244807804881
 41
74.25131819944003
 71
     5
 72
     5
  1
{\fSimSun|b0|i0|c134|p54;比 例}
 73
     1
 44
1.0
1001
ACAD
1000
MTEXTBEGIN
1070
    73
1070
     1
1070
    44
1040
1.0
1070
    74
1070
     0
1000
MTEXTEND
  0
MTEXT
  5
18FED
330
18FB0
100
AcDbEntity
  8
虚线
 62
     7
370
    18
100
AcDbMText
 10
1469.963855249773
 20
46.9376571779012
 30
0.0
 40
13.40244807804881
 41
74.20060909524568
 71
     5
 72
     5
  1
{\fSimSun|b0|i0|c134|p54;版 次}
 73
     1
 44
1.0
1001
ACAD
1000
MTEXTBEGIN
1070
    73
1070
     1
1070
    44
1040
1.0
1070
    74
1070
     0
1000
MTEXTEND
  0
LINE
  5
18FEE
330
18FB0
100
AcDbEntity
  8
0
370
    -3
100
AcDbLine
 10
1507.165631045851
 20
170.93970958713
 30
0.0
 11
1507.165631045851
 21
34.64999121525034
 31
0.0
  0
MTEXT
  5
18FEF
330
18FB0
100
AcDbEntity
  8
虚线
 62
     7
370
    18
100
AcDbMText
 10
1470.039971946133
 20
65.04703795201749
 30
0.0
 40
12.9689420303483
 41
74.25131819944026
 71
     5
 72
     5
  1
{\fSimSun|b0|i0|c134|p2;REV.} 
 73
     1
 44
1.0
1001
ACAD
1000
MTEXTBEGIN
1070
    73
1070
     1
1070
    44
1040
1.0
1070
    74
1070
     0
1000
MTEXTEND
  0
LINE
  5
18FF0
330
18FB0
100
AcDbEntity
  8
0
370
    -3
100
AcDbLine
 10
1432.914312846411
 20
170.93970958713
 30
0.0
 11
1432.914312846411
 21
34.64999121525034
 31
0.0
  0
LINE
  5
18FF1
330
18FB0
100
AcDbEntity
  8
0
370
    -3
100
AcDbLine
 10
1309.595148166228
 20
170.93970958713
 30
0.0
 11
1309.595148166212
 21
34.64999121525034
 31
0.0
  0
MTEXT
  5
18FF2
330
18FB0
100
AcDbEntity
  8
虚线
 62
     7
370
    18
100
AcDbMText
 10
1470.039971946133
 20
111.0690626464202
 30
0.0
 40
12.9689420303483
 41
74.25131819943953
 71
     5
 72
     5
  1
{\fSimSun|b0|i0|c134|p2;SCALE}
 73
     1
 44
1.0
1001
ACAD
1000
MTEXTBEGIN
1070
    73
1070
     1
1070
    44
1040
1.0
1070
    74
1070
     0
1000
MTEXTEND
  0
LINE
  5
18FF3
330
18FB0
100
AcDbEntity
  8
0
370
    -3
100
AcDbLine
 10
1859.869892851815
 20
76.18472843079143
 30
0.0
 11
1117.453876217636
 21
76.18472843079143
 31
0.0
  0
LINE
  5
18FF4
330
18FB0
100
AcDbEntity
  8
0
370
    -3
100
AcDbLine
 10
1859.869892851815
 20
123.5622190089634
 30
0.0
 11
1117.453876217636
 21
123.5622190089634
 31
0.0
  0
MTEXT
  5
18FF5
330
18FB0
100
AcDbEntity
  8
虚线
 62
     7
370
    18
100
AcDbMText
 10
1541.611047737815
 20
56.44156099216343
 30
0.0
 40
13.86
 41
68.8908333839262
 71
     5
 72
     5
  1
{\fSimSun|b0|i0|c134|p2;A/0}
 73
     1
 44
1.0
1001
ACAD
1000
MTEXTBEGIN
1070
    73
1070
     1
1070
    44
1040
1.0
1070
    74
1070
     0
1000
MTEXTEND
  0
LINE
  5
18FF6
330
18FB0
100
AcDbEntity
  8
0
370
    -3
100
AcDbLine
 10
1859.869892851815
 20
170.93970958713
 30
0.0
 11
1117.453876217636
 21
170.93970958713
 31
0.0
  0
LINE
  5
18FF7
330
18FB0
100
AcDbEntity
  8
0
370
    -3
100
AcDbLine
 10
1465.336667922305
 20
340.9962588542803
 30
0.0
 11
1465.336667922305
 21
170.93970958713
 31
0.0
  0
LINE
  5
18FF8
330
18FB0
100
AcDbEntity
  8
0
370
    -3
100
AcDbLine
 10
1376.562020094139
 20
259.2102197282947
 30
0.0
 11
1376.562020094136
 21
170.93970958713
 31
0.0
  0
LINE
  5
18FF9
330
18FB0
100
AcDbEntity
  8
0
370
    -3
100
AcDbLine
 10
1293.173830144913
 20
259.2102197282947
 30
0.0
 11
1293.173830144898
 21
170.93970958713
 31
0.0
  0
LINE
  5
18FFA
330
18FB0
100
AcDbEntity
  8
0
370
    60
100
AcDbLine
 10
86.62500263709807
 20
34.64999121525034
 30
0.0
 11
1859.869892851815
 21
34.64999121525034
 31
0.0
  0
MTEXT
  5
18FFB
330
18FB0
100
AcDbEntity
  8
标注线
  6
Continuous
100
AcDbMText
 10
1662.60328038706
 20
216.4745641539339
 30
0.0
 40
15.0
 41
394.5332249295102
 71
     5
 72
     5
  1
{\C7;KSSX-5080R(HA103-R15)\fSimSun|b0|i0|c134|p54;产品图}
 73
     1
 44
1.0
1001
ACAD
1000
ACAD_MTEXT_DEFINED_HEIGHT_BEGIN
1070
    46
1040
0.0
1000
ACAD_MTEXT_DEFINED_HEIGHT_END
1000
MTEXTBEGIN
1070
    73
1070
     1
1070
    44
1040
1.0
1070
    74
1070
     0
1000
MTEXTEND
  0
LINE
  5
18FFC
330
18FB0
100
AcDbEntity
  8
0
370
    60
100
AcDbLine
 10
1894.519892851815
 20
1317.340092972166
 30
0.0
 11
1894.519892851802
 21
-0.0000087847474788
 31
0.0
  0
LINE
  5
18FFD
330
18FB0
100
AcDbEntity
  8
0
370
    60
100
AcDbLine
 10
0.0000026370944397
 20
-0.0000087847474788
 30
0.0
 11
1894.519892851802
 21
-0.0000087847474788
 31
0.0
  0
MTEXT
  5
18FFE
330
18FB0
100
AcDbEntity
  8
虚线
 62
     7
370
    18
100
AcDbMText
 10
1762.241017960796
 20
148.246640692847
 30
0.0
 40
16.63199999999999
 41
195.2577497820416
 71
     5
 72
     5
  1
{\fSimSun|b0|i0|c134|p2;T=1.2mm  SUS304}
 73
     1
 44
1.0
1001
ACAD
1000
MTEXTBEGIN
1070
    73
1070
     1
1070
    44
1040
1.0
1070
    74
1070
     0
1000
MTEXTEND
  0
MTEXT
  5
18FFF
330
18FB0
100
AcDbEntity
  8
标注线
  6
Continuous
 62
     7
100
AcDbMText
 10
1291.395272069972
 20
311.6539947690108
 30
0.0
 40
23.95008000000001
 41
347.8827917046697
 71
     5
 72
     5
  1
{\fKaiTi_GB2312|b0|i0|c134|p49;东原厨具实业有限公司}
 73
     1
 44
1.0
1001
ACAD
1000
MTEXTBEGIN
1070
    73
1070
     1
1070
    44
1040
1.0
1070
    74
1070
     0
1000
MTEXTEND
  0
MTEXT
  5
19000
330
18FB0
100
AcDbEntity
  8
虚线
 62
     7
370
    18
100
AcDbMText
 10
1291.395272069972
 20
276.3174566535417
 30
0.0
 40
12.1968
 41
347.8827917046701
 71
     5
 72
     5
  1
{\fSimSun|b0|i0|c134|p2;DONGYUAN KITCHENWARE INDUSTRIAL CO.,LTD}
 73
     1
 44
1.0
1001
ACAD
1000
MTEXTBEGIN
1070
    73
1070
     1
1070
    44
1040
1.0
1070
    74
1070
     0
1000
MTEXTEND
  0
MTEXT
  5
19001
330
18FB0
100
AcDbEntity
  8
虚线
 62
     7
370
    18
100
AcDbMText
 10
1251.817907324943
 20
146.6717897995622
 30
0.0
 40
18.48
 41
115.5544816825673
 71
     5
 72
     5
  1
{\fSimSun|b0|i0|c134|p2;谢海帆}
 73
     1
 44
1.0
1001
ACAD
1000
MTEXTBEGIN
1070
    73
1070
     1
1070
    44
1040
1.0
1070
    74
1070
     0
1000
MTEXTEND
  0
MTEXT
  5
19002
330
18FB0
100
AcDbEntity
  8
虚线
 62
     7
370
    18
100
AcDbMText
 10
1371.254730506318
 20
145.3546525047495
 30
0.0
 40
13.86
 41
123.3191646801861
 71
     5
 72
     5
  1
{\fSimSun|b0|i0|c134|p2;2008.12.17}
 73
     1
 44
1.0
1001
ACAD
1000
ACAD_MTEXT_DEFINED_HEIGHT_BEGIN
1070
    46
1040
0.0
1000
ACAD_MTEXT_DEFINED_HEIGHT_END
1000
MTEXTBEGIN
1070
    73
1070
     1
1070
    44
1040
1.0
1070
    74
1070
     0
1000
MTEXTEND
  0
MTEXT
  5
19003
330
18FB0
100
AcDbEntity
  8
虚线
 62
     7
370
    18
100
AcDbMText
 10
1643.97963533575
 20
52.79811025294839
 30
0.0
 40
13.40244807804881
 41
9.056188835122439
 71
     1
 72
     5
  1
{\fSimSun|b0|i0|c134|p2;1}
 73
     1
 44
1.0
1001
ACAD
1000
MTEXTBEGIN
1070
    73
1070
     1
1070
    44
1040
1.0
1070
    74
1070
     0
1000
MTEXTEND
  0
MTEXT
  5
19004
330
18FB0
100
AcDbEntity
  8
虚线
 62
     7
370
    18
100
AcDbMText
 10
1785.045944460902
 20
52.30675916792461
 30
0.0
 40
13.40244807804881
 41
10.21006116495092
 71
     1
 72
     5
  1
{\fSimSun|b0|i0|c134|p2;1}
 73
     1
 44
1.0
1001
ACAD
1000
MTEXTBEGIN
1070
    73
1070
     1
1070
    44
1040
1.0
1070
    74
1070
     0
1000
MTEXTEND
  0
LINE
  5
19005
330
18FB0
100
AcDbEntity
  8
0
370
    60
100
AcDbLine
 10
1859.869892851815
 20
1282.690092972167
 30
0.0
 11
86.62500263709807
 21
1282.690092972167
 31
0.0
  0
LINE
  5
19006
330
18FB0
100
AcDbEntity
  8
0
370
    60
100
AcDbLine
 10
86.62500263709807
 20
34.64999121525034
 30
0.0
 11
86.62500263709807
 21
1282.690092972167
 31
0.0
  0
LINE
  5
19007
330
18FB0
100
AcDbEntity
  8
0
370
    60
100
AcDbLine
 10
1894.519892851815
 20
1317.340092972166
 30
0.0
 11
0.0000026370944397
 21
1317.340092972165
 31
0.0
  0
LINE
  5
19008
330
18FB0
100
AcDbEntity
  8
0
370
    60
100
AcDbLine
 10
0.0000026370944397
 20
-0.0000087847474788
 30
0.0
 11
0.0000026370944397
 21
1317.340092972165
 31
0.0
  0
MTEXT
  5
19009
330
18FB0
100
AcDbEntity
  8
虚线
 62
     7
370
    18
100
AcDbMText
 10
1706.388302324207
 20
322.0630202420871
 30
0.0
 40
15.36
 41
306.9631810552159
 71
     5
 72
     5
  1
{\fSimSun|b0|i0|c134|p2;圆角R15手工单盆}
 73
     1
 44
1.0
1001
ACAD
1000
ACAD_MTEXT_DEFINED_HEIGHT_BEGIN
1070
    46
1040
20.22399999999779
1000
ACAD_MTEXT_DEFINED_HEIGHT_END
1000
MTEXTBEGIN
1070
    73
1070
     1
1070
    44
1040
1.0
1070
    74
1070
     0
1000
MTEXTEND
  0
ENDBLK
  5
1900D
330
18FB0
100
AcDbEntity
  8
0
100
AcDbBlockEnd
  0
BLOCK
  5
1915D
330
19154
100
AcDbEntity
  8
0
100
AcDbBlockBegin
  2
A$C60DA4394
 70
     0
 10
0.0
 20
0.0
 30
0.0
  3
A$C60DA4394
  1

  0
LINE
  5
19155
330
19154
100
AcDbEntity
  8
粗实线
100
AcDbLine
 10
-57.50000000000546
 20
-4.0
 30
0.0
 11
-60.00000000000454
 21
0.0
 31
0.0
  0
LINE
  5
19156
330
19154
100
AcDbEntity
  8
粗实线
100
AcDbLine
 10
-57.50000000000546
 20
-4.0
 30
0.0
 11
-45.00000000000546
 21
-4.0
 31
0.0
  0
LINE
  5
19157
330
19154
100
AcDbEntity
  8
粗实线
100
AcDbLine
 10
57.50000000000454
 20
-4.0
 30
0.0
 11
60.00000000000364
 21
0.0
 31
0.0
  0
LINE
  5
19158
330
19154
100
AcDbEntity
  8
粗实线
100
AcDbLine
 10
57.50000000000454
 20
-4.0
 30
0.0
 11
45.00000000000454
 21
-4.0
 31
0.0
  0
LINE
  5
19159
330
19154
100
AcDbEntity
  8
细实线
100
AcDbLine
 10
-45.00000000000546
 20
-4.0
 30
0.0
 11
45.00000000000454
 21
-4.0
 31
0.0
  0
LINE
  5
1915A
330
19154
100
AcDbEntity
  8
0
  6
ACAD_ISO10W100
 62
     1
100
AcDbLine
 10
0.0
 20
40.23230600814713
 30
0.0
 11
0.0
 21
-40.23230600814713
 31
0.0
  0
ENDBLK
  5
1915E
330
19154
100
AcDbEntity
  8
0
100
AcDbBlockEnd
  0
BLOCK
  5
1941D
330
193C1
100
AcDbEntity
  8
0
100
AcDbBlockBegin
  2
A$C4C4D1F6A
 70
     0
 10
0.0
 20
0.0
 30
0.0
  3
A$C4C4D1F6A
  1

  0
MTEXT
  5
193C2
330
193C1
100
AcDbEntity
  8
虚线
 62
     7
370
    18
100
AcDbMText
 10
1167.847208268327
 20
199.3410299694951
 30
0.0
 40
10.37515362427864
 41
100.7866641013535
 71
     5
 72
     5
  1
{\fSimSun|b0|i0|c134|p2;\H0.9027x;UPDATE SYMBOL}
 73
     1
 44
1.0
1001
ACAD
1000
MTEXTBEGIN
1070
    73
1070
     1
1070
    44
1040
1.0
1070
    74
1070
     0
1000
MTEXTEND
  0
MTEXT
  5
193C3
330
193C1
100
AcDbEntity
  8
虚线
 62
     7
370
    18
100
AcDbMText
 10
1167.847208268327
 20
180.8231744256772
 30
0.0
 40
12.9689420303483
 41
100.7866641013526
 71
     5
 72
     5
  1
{\fSimSun|b0|i0|c134|p54;\H0.7222x;更改   标记}
 73
     1
 44
1.0
1001
ACAD
1000
MTEXTBEGIN
1070
    73
1070
     1
1070
    44
1040
1.0
1070
    74
1070
     0
1000
MTEXTEND
  0
MTEXT
  5
193C4
330
193C1
100
AcDbEntity
  8
虚线
 62
     7
370
    18
100
AcDbMText
 10
1155.747271350663
 20
158.0998077997119
 30
0.0
 40
12.9689420303483
 41
76.58679026602166
 71
     5
 72
     5
  1
{\fSimSun|b0|i0|c134|p2;DWN.}
 73
     1
 44
1.0
1001
ACAD
1000
MTEXTBEGIN
1070
    73
1070
     1
1070
    44
1040
1.0
1070
    74
1070
     0
1000
MTEXTEND
  0
MTEXT
  5
193C5
330
193C1
100
AcDbEntity
  8
虚线
 62
     7
370
    18
100
AcDbMText
 10
1155.747271350663
 20
137.5607025988974
 30
0.0
 40
13.40244807804881
 41
76.58679026602197
 71
     5
 72
     5
  1
{\fSimSun|b0|i0|c134|p54;制 图}
 73
     1
 44
1.0
1001
ACAD
1000
MTEXTBEGIN
1070
    73
1070
     1
1070
    44
1040
1.0
1070
    74
1070
     0
1000
MTEXTEND
  0
MTEXT
  5
193C6
330
193C1
100
AcDbEntity
  8
0
370
    -3
100
AcDbMText
 10
1155.747271350663
 20
89.38611948636935
 30
0.0
 40
13.40244807804881
 41
76.58679026602166
 71
     5
 72
     5
  1
{\fSimSun|b0|i0|c134|p54;\C7;审 核}
 73
     1
 44
1.0
1001
ACAD
1000
MTEXTBEGIN
1070
    73
1070
     1
1070
    44
1040
1.0
1070
    74
1070
     0
1000
MTEXTEND
  0
MTEXT
  5
193C7
330
193C1
100
AcDbEntity
  8
虚线
 62
     7
370
    18
100
AcDbMText
 10
1155.747271350663
 20
48.13719204226072
 30
0.0
 40
13.40244807804881
 41
76.58679026602155
 71
     5
 72
     5
  1
{\fSimSun|b0|i0|c134|p54;批 准}
 73
     1
 44
1.0
1001
ACAD
1000
MTEXTBEGIN
1070
    73
1070
     1
1070
    44
1040
1.0
1070
    74
1070
     0
1000
MTEXTEND
  0
MTEXT
  5
193C8
330
193C1
100
AcDbEntity
  8
虚线
370
    18
100
AcDbMText
 10
1155.747271350663
 20
67.46015087829073
 30
0.0
 40
12.9689420303483
 41
76.58679026602162
 71
     5
 72
     5
  1
{\fSimSun|b0|i0|c134|p2;\C7;APPD.}
 73
     1
 44
1.0
1001
ACAD
1000
MTEXTBEGIN
1070
    73
1070
     1
1070
    44
1040
1.0
1070
    74
1070
     0
1000
MTEXTEND
  0
LINE
  5
193C9
330
193C1
100
AcDbEntity
  8
0
370
    -3
100
AcDbLine
 10
1194.040666483672
 20
170.9397109764959
 30
0.0
 11
1194.040666483672
 21
34.64999260459808
 31
0.0
  0
MTEXT
  5
193CA
330
193C1
100
AcDbEntity
  8
0
370
    -3
100
AcDbMText
 10
1155.747271350663
 20
111.9908494168267
 30
0.0
 40
12.9689420303483
 41
76.58679026602162
 71
     5
 72
     5
  1
{\fSimSun|b0|i0|c134|p2;\C7;CKD.}
 73
     1
 44
1.0
1001
ACAD
1000
MTEXTBEGIN
1070
    73
1070
     1
1070
    44
1040
1.0
1070
    74
1070
     0
1000
MTEXTEND
  0
LINE
  5
193CB
330
193C1
100
AcDbEntity
  8
0
370
    60
100
AcDbLine
 10
1117.453876217651
 20
340.9962602436281
 30
0.0
 11
1117.453876217651
 21
34.64999260459808
 31
0.0
  0
LINE
  5
193CC
330
193C1
100
AcDbEntity
  8
0
370
    -3
100
AcDbLine
 10
1218.240540319008
 20
259.2102211176425
 30
0.0
 11
1218.240540319004
 21
170.9397109764777
 31
0.0
  0
LINE
  5
193CD
330
193C1
100
AcDbEntity
  8
中心线
370
    -3
100
AcDbLine
 10
1779.61466447195
 20
100.5881286950844
 30
0.0
 11
1649.73037686488
 21
100.5881286950844
 31
0.0
  0
MTEXT
  5
193CE
330
193C1
100
AcDbEntity
  8
虚线
 62
     7
370
    18
100
AcDbMText
 10
1541.61104773783
 20
148.4235833841412
 30
0.0
 40
13.86
 41
68.8908333839262
 71
     5
 72
     5
  1
{\fSimSun|b0|i0|c134|p2;1件}
 73
     1
 44
1.0
1001
ACAD
1000
MTEXTBEGIN
1070
    73
1070
     1
1070
    44
1040
1.0
1070
    74
1070
     0
1000
MTEXTEND
  0
MTEXT
  5
193CF
330
193C1
100
AcDbEntity
  8
虚线
 62
     7
370
    18
100
AcDbMText
 10
1620.334303749791
 20
159.7351451246959
 30
0.0
 40
12.9689420303483
 41
88.55567863999722
 71
     5
 72
     5
  1
{\fSimSun|b0|i0|c134|p2;MATERIAL}
 73
     1
 44
1.0
1001
ACAD
1000
MTEXTBEGIN
1070
    73
1070
     1
1070
    44
1040
1.0
1070
    74
1070
     0
1000
MTEXTEND
  0
MTEXT
  5
193D0
330
193C1
100
AcDbEntity
  8
虚线
 62
     7
370
    18
100
AcDbMText
 10
1620.334303749791
 20
138.326179544274
 30
0.0
 40
13.40244807804881
 41
88.55567863999722
 71
     5
 72
     5
  1
{\fSimSun|b0|i0|c134|p54;材 料}
 73
     1
 44
1.0
1001
ACAD
1000
MTEXTBEGIN
1070
    73
1070
     1
1070
    44
1040
1.0
1070
    74
1070
     0
1000
MTEXTEND
  0
LINE
  5
193D1
330
193C1
100
AcDbEntity
  8
0
370
    -3
100
AcDbLine
 10
1576.056464429792
 20
170.9397109764777
 30
0.0
 11
1576.056464429792
 21
34.64999260459808
 31
0.0
  0
LINE
  5
193D2
330
193C1
100
AcDbEntity
  8
0
370
    60
100
AcDbLine
 10
1859.86989285183
 20
1282.690094361514
 30
0.0
 11
1859.86989285183
 21
34.64999260459808
 31
0.0
  0
MTEXT
  5
193D3
330
193C1
100
AcDbEntity
  8
虚线
 62
     7
370
    18
100
AcDbMText
 10
1710.682252943012
 20
291.9990942349523
 30
0.0
 40
10.37515362427864
 41
97.2670652275605
 71
     5
 72
     5
  1
{\fSimSun|b0|i0|c134|p2;MODEL NO.}
 73
     1
 44
1.0
1001
ACAD
1000
MTEXTBEGIN
1070
    73
1070
     1
1070
    44
1040
1.0
1070
    74
1070
     0
1000
MTEXTEND
  0
MTEXT
  5
193D4
330
193C1
100
AcDbEntity
  8
虚线
 62
     7
370
    18
100
AcDbMText
 10
1710.682252943012
 20
273.4077273327603
 30
0.0
 40
13.40244807804881
 41
97.26706522756046
 71
     5
 72
     5
  1
{\fSimSun|b0|i0|c134|p2;型 号}
 73
     1
 44
1.0
1001
ACAD
1000
MTEXTBEGIN
1070
    73
1070
     1
1070
    44
1040
1.0
1070
    74
1070
     0
1000
MTEXTEND
  0
LINE
  5
193D5
330
193C1
100
AcDbEntity
  8
0
370
    -3
100
AcDbLine
 10
1662.04872032923
 20
300.1032406806607
 30
0.0
 11
1662.04872032923
 21
259.2102211176425
 31
0.0
  0
LINE
  5
193D6
330
193C1
100
AcDbEntity
  8
0
370
    -3
100
AcDbLine
 10
1759.315785556793
 20
300.1032406806607
 30
0.0
 11
1759.315785556793
 21
259.2102211176425
 31
0.0
  0
MTEXT
  5
193D7
330
193C1
100
AcDbEntity
  8
虚线
 62
     7
370
    18
100
AcDbMText
 10
1509.121689859466
 20
312.3488759447264
 30
0.0
 40
13.40244807804881
 41
87.57004387429594
 71
     5
 72
     5
  1
{\fSimSun|b0|i0|c134|p54;描 述}
 73
     1
 44
1.0
1001
ACAD
1000
MTEXTBEGIN
1070
    73
1070
     1
1070
    44
1040
1.0
1070
    74
1070
     0
1000
MTEXTEND
  0
MTEXT
  5
193D8
330
193C1
100
AcDbEntity
  8
虚线
 62
     7
370
    18
100
AcDbMText
 10
1509.12168985947
 20
291.9608386886121
 30
0.0
 40
10.37515362427864
 41
87.57004387429724
 71
     5
 72
     5
  1
{\fSimSun|b0|i0|c134|p2;DWG. NO.}
 73
     1
 44
1.0
1001
ACAD
1000
MTEXTBEGIN
1070
    73
1070
     1
1070
    44
1040
1.0
1070
    74
1070
     0
1000
MTEXTEND
  0
MTEXT
  5
193D9
330
193C1
100
AcDbEntity
  8
虚线
 62
     7
370
    18
100
AcDbMText
 10
1509.12168985947
 20
274.5979692326
 30
0.0
 40
13.40244807804881
 41
87.57004387429994
 71
     5
 72
     5
  1
{\fSimSun|b0|i0|c134|p54;图 号}
 73
     1
 44
1.0
1001
ACAD
1000
MTEXTBEGIN
1070
    73
1070
     1
1070
    44
1040
1.0
1070
    74
1070
     0
1000
MTEXTEND
  0
LINE
  5
193DA
330
193C1
100
AcDbEntity
  8
0
370
    -3
100
AcDbLine
 10
1465.33666792232
 20
232.2573480774154
 30
0.0
 11
1117.453876217651
 21
232.2573480774063
 31
0.0
  0
LINE
  5
193DB
330
193C1
100
AcDbEntity
  8
0
370
    -3
100
AcDbLine
 10
1465.33666792232
 20
259.2102211176425
 30
0.0
 11
1117.453876217651
 21
259.2102211176425
 31
0.0
  0
LINE
  5
193DC
330
193C1
100
AcDbEntity
  8
0
370
    -3
100
AcDbLine
 10
1552.90671179661
 20
340.9962602436281
 30
0.0
 11
1552.906711796624
 21
259.2102211176388
 31
0.0
  0
MTEXT
  5
193DD
330
193C1
100
AcDbEntity
  8
虚线
 62
     7
370
    18
100
AcDbMText
 10
1509.121689859466
 20
332.2638731167753
 30
0.0
 40
10.37515362427864
 41
87.57004387429175
 71
     5
 72
     5
  1
{\fSimSun|b0|i0|c134|p2;DESCRIPTION}
 73
     1
 44
1.0
1001
ACAD
1000
MTEXTBEGIN
1070
    73
1070
     1
1070
    44
1040
1.0
1070
    74
1070
     0
1000
MTEXTEND
  0
LINE
  5
193DE
330
193C1
100
AcDbEntity
  8
0
370
    -3
100
AcDbLine
 10
1859.86989285183
 20
259.2102211176425
 30
0.0
 11
1465.33666792232
 21
259.2102211176425
 31
0.0
  0
LINE
  5
193DF
330
193C1
100
AcDbEntity
  8
0
370
    -3
100
AcDbLine
 10
1859.86989285183
 20
300.1032406806353
 30
0.0
 11
1465.33666792232
 21
300.1032406806353
 31
0.0
  0
LINE
  5
193E0
330
193C1
100
AcDbEntity
  8
0
370
    60
100
AcDbLine
 10
1859.86989285183
 20
340.9962602436281
 30
0.0
 11
1117.453876217651
 21
340.9962602436281
 31
0.0
  0
LINE
  5
193E1
330
193C1
100
AcDbEntity
  8
0
370
    -3
100
AcDbLine
 10
1716.434004587449
 20
86.56766484491527
 30
0.0
 11
1716.434004587449
 21
114.7038666831904
 31
0.0
  0
CIRCLE
  5
193E2
330
193C1
100
AcDbEntity
  8
0
370
    -3
100
AcDbCircle
 10
1761.351225158562
 20
100.5881286950844
 30
0.0
 40
14.02046385016895
  0
CIRCLE
  5
193E3
330
193C1
100
AcDbEntity
  8
0
370
    -3
100
AcDbCircle
 10
1761.351225158562
 20
100.5881286950844
 30
0.0
 40
7.010231925084475
  0
LINE
  5
193E4
330
193C1
100
AcDbEntity
  8
中心线
370
    -3
100
AcDbLine
 10
1761.351225158562
 20
82.32468938170313
 30
0.0
 11
1761.351225158562
 21
118.8515680084638
 31
0.0
  0
MTEXT
  5
193E5
330
193C1
100
AcDbEntity
  8
虚线
 62
     7
370
    18
100
AcDbMText
 10
1541.61104773783
 20
100.7255382965158
 30
0.0
 40
13.86
 41
68.8908333839262
 71
     5
 72
     5
  1
{\fSimSun|b0|i0|c134|p2;1:1}
 73
     1
 44
1.0
1001
ACAD
1000
MTEXTBEGIN
1070
    73
1070
     1
1070
    44
1040
1.0
1070
    74
1070
     0
1000
MTEXTEND
  0
LINE
  5
193E6
330
193C1
100
AcDbEntity
  8
0
370
    -3
100
AcDbLine
 10
1655.461662732387
 20
93.57789676999709
 30
0.0
 11
1655.461662732387
 21
107.6139206119478
 31
0.0
  0
LINE
  5
193E7
330
193C1
100
AcDbEntity
  8
0
370
    -3
100
AcDbLine
 10
1716.434004587449
 20
86.56766484491527
 30
0.0
 11
1655.461662732387
 21
93.57789676999709
 31
0.0
  0
LINE
  5
193E8
330
193C1
100
AcDbEntity
  8
0
370
    -3
100
AcDbLine
 10
1655.461662732387
 20
107.6139206119478
 30
0.0
 11
1716.434004587449
 21
114.7038666831904
 31
0.0
  0
MTEXT
  5
193E9
330
193C1
100
AcDbEntity
  8
虚线
 62
     7
370
    18
100
AcDbMText
 10
1732.849848416243
 20
56.92228003847958
 30
0.0
 40
13.40244807804881
 41
25.88593023015731
 71
     1
 72
     5
  1
{\fSimSun|b0|i0|c134|p54;第}
 73
     1
 44
1.0
1001
ACAD
1000
MTEXTBEGIN
1070
    73
1070
     1
1070
    44
1040
1.0
1070
    74
1070
     0
1000
MTEXTEND
  0
MTEXT
  5
193EA
330
193C1
100
AcDbEntity
  8
虚线
 62
     7
370
    18
100
AcDbMText
 10
1772.909233116133
 20
53.81781637629683
 30
0.0
 40
13.40244807804881
 41
40.81793527343664
 71
     1
 72
     5
  1
{\fSimSun|b0|i0|c134|p2;(  )}
 73
     1
 44
1.0
1001
ACAD
1000
MTEXTBEGIN
1070
    73
1070
     1
1070
    44
1040
1.0
1070
    74
1070
     0
1000
MTEXTEND
  0
MTEXT
  5
193EB
330
193C1
100
AcDbEntity
  8
虚线
 62
     7
370
    18
100
AcDbMText
 10
1822.569763461075
 20
56.53871996470844
 30
0.0
 40
13.40244807804881
 41
37.30012939075567
 71
     1
 72
     5
  1
{\fSimSun|b0|i0|c134|p54;页}
 73
     1
 44
1.0
1001
ACAD
1000
MTEXTBEGIN
1070
    73
1070
     1
1070
    44
1040
1.0
1070
    74
1070
     0
1000
MTEXTEND
  0
MTEXT
  5
193EC
330
193C1
100
AcDbEntity
  8
虚线
 62
     7
370
    18
100
AcDbMText
 10
1686.366084178657
 20
56.25675306529956
 30
0.0
 40
13.40244807804881
 41
23.41983335230793
 71
     1
 72
     5
  1
{\fSimSun|b0|i0|c134|p54;页}
 73
     1
 44
1.0
1001
ACAD
1000
MTEXTBEGIN
1070
    73
1070
     1
1070
    44
1040
1.0
1070
    74
1070
     0
1000
MTEXTEND
  0
MTEXT
  5
193ED
330
193C1
100
AcDbEntity
  8
虚线
 62
     7
370
    18
100
AcDbMText
 10
1631.481256902558
 20
54.48941375487447
 30
0.0
 40
13.40244807804881
 41
44.26421375328346
 71
     1
 72
     5
  1
{\fSimSun|b0|i0|c134|p2;(  )}
 73
     1
 44
1.0
1001
ACAD
1000
MTEXTBEGIN
1070
    73
1070
     1
1070
    44
1040
1.0
1070
    74
1070
     0
1000
MTEXTEND
  0
MTEXT
  5
193EE
330
193C1
100
AcDbEntity
  8
虚线
 62
     7
370
    18
100
AcDbMText
 10
1585.06681905157
 20
56.45045526855392
 30
0.0
 40
13.40244807804881
 41
26.26254123795437
 71
     1
 72
     5
  1
{\fSimSun|b0|i0|c134|p54;共}
 73
     1
 44
1.0
1001
ACAD
1000
MTEXTBEGIN
1070
    73
1070
     1
1070
    44
1040
1.0
1070
    74
1070
     0
1000
MTEXTEND
  0
MTEXT
  5
193EF
330
193C1
100
AcDbEntity
  8
虚线
 62
     7
370
    18
100
AcDbMText
 10
1582.287737348071
 20
73.86657153547457
 30
0.0
 40
12.9689420303483
 41
36.33118574990459
 71
     1
 72
     5
  1
{\fSimSun|b0|i0|c134|p2;ALL}
 73
     1
 44
1.0
1001
ACAD
1000
MTEXTBEGIN
1070
    73
1070
     1
1070
    44
1040
1.0
1070
    74
1070
     0
1000
MTEXTEND
  0
MTEXT
  5
193F0
330
193C1
100
AcDbEntity
  8
虚线
 62
     7
370
    18
100
AcDbMText
 10
1686.655978566224
 20
73.33495463037798
 30
0.0
 40
12.9689420303483
 41
21.79147238067483
 71
     1
 72
     5
  1
{\fSimSun|b0|i0|c134|p2;PG}
 73
     1
 44
1.0
1001
ACAD
1000
MTEXTBEGIN
1070
    73
1070
     1
1070
    44
1040
1.0
1070
    74
1070
     0
1000
MTEXTEND
  0
MTEXT
  5
193F1
330
193C1
100
AcDbEntity
  8
虚线
 62
     7
370
    18
100
AcDbMText
 10
1729.231557967187
 20
73.1059886970761
 30
0.0
 40
12.9689420303483
 41
33.681404708366
 71
     1
 72
     5
  1
{\fSimSun|b0|i0|c134|p2;LSN}
 73
     1
 44
1.0
1001
ACAD
1000
MTEXTBEGIN
1070
    73
1070
     1
1070
    44
1040
1.0
1070
    74
1070
     0
1000
MTEXTEND
  0
MTEXT
  5
193F2
330
193C1
100
AcDbEntity
  8
虚线
 62
     7
370
    18
100
AcDbMText
 10
1823.46767325403
 20
73.38095735380921
 30
0.0
 40
12.9689420303483
 41
36.40221959779971
 71
     1
 72
     5
  1
{\fSimSun|b0|i0|c134|p2;PG}
 73
     1
 44
1.0
1001
ACAD
1000
MTEXTBEGIN
1070
    73
1070
     1
1070
    44
1040
1.0
1070
    74
1070
     0
1000
MTEXTEND
  0
LINE
  5
193F3
330
193C1
100
AcDbEntity
  8
0
370
    -3
100
AcDbLine
 10
1664.612143069788
 20
170.9397109764832
 30
0.0
 11
1664.612143069788
 21
123.5622203983112
 31
0.0
  0
MTEXT
  5
193F4
330
193C1
100
AcDbEntity
  8
虚线
 62
     7
370
    18
100
AcDbMText
 10
1420.949344008237
 20
199.0370468187757
 30
0.0
 40
9.365566126829287
 41
88.77464782816797
 71
     5
 72
     5
  1
{\fSimSun|b0|i0|c134|p2;DATE}
 73
     1
 44
1.0
1001
ACAD
1000
MTEXTBEGIN
1070
    73
1070
     1
1070
    44
1040
1.0
1070
    74
1070
     0
1000
MTEXTEND
  0
MTEXT
  5
193F5
330
193C1
100
AcDbEntity
  8
虚线
 62
     7
370
    18
100
AcDbMText
 10
1420.949344008235
 20
180.7336753124655
 30
0.0
 40
9.365566126829287
 41
88.7746478281687
 71
     5
 72
     5
  1
{\fSimSun|b0|i0|c134|p54;日 期}
 73
     1
 44
1.0
1001
ACAD
1000
MTEXTBEGIN
1070
    73
1070
     1
1070
    44
1040
1.0
1070
    74
1070
     0
1000
MTEXTEND
  0
MTEXT
  5
193F6
330
193C1
100
AcDbEntity
  8
虚线
 62
     7
370
    18
100
AcDbMText
 10
1334.867925119533
 20
181.1264595301217
 30
0.0
 40
12.9689420303483
 41
83.38818994923576
 71
     5
 72
     5
  1
{\fSimSun|b0|i0|c134|p54;\H0.7222x;签 名}
 73
     1
 44
1.0
1001
ACAD
1000
MTEXTBEGIN
1070
    73
1070
     1
1070
    44
1040
1.0
1070
    74
1070
     0
1000
MTEXTEND
  0
MTEXT
  5
193F7
330
193C1
100
AcDbEntity
  8
虚线
 62
     7
370
    18
100
AcDbMText
 10
1255.707185231959
 20
180.9359698259286
 30
0.0
 40
12.9689420303483
 41
74.93328982591005
 71
     5
 72
     5
  1
{\fSimSun|b0|i0|c134|p54;\H0.7222x;处 数}
 73
     1
 44
1.0
1001
ACAD
1000
MTEXTBEGIN
1070
    73
1070
     1
1070
    44
1040
1.0
1070
    74
1070
     0
1000
MTEXTEND
  0
MTEXT
  5
193F8
330
193C1
100
AcDbEntity
  8
虚线
 62
     7
370
    18
100
AcDbMText
 10
1334.867925119533
 20
198.3780834328645
 30
0.0
 40
10.37515362427864
 41
83.38818994923364
 71
     5
 72
     5
  1
{\fSimSun|b0|i0|c134|p2;\H0.9027x;AUTOGRAPH}
 73
     1
 44
1.0
1001
ACAD
1000
MTEXTBEGIN
1070
    73
1070
     1
1070
    44
1040
1.0
1070
    74
1070
     0
1000
MTEXTEND
  0
MTEXT
  5
193F9
330
193C1
100
AcDbEntity
  8
虚线
 62
     7
370
    18
100
AcDbMText
 10
1470.039971946147
 20
158.6639133099815
 30
0.0
 40
12.9689420303483
 41
74.25131819943986
 71
     5
 72
     5
  1
{\fSimSun|b0|i0|c134|p2;NUMBER}
 73
     1
 44
1.0
1001
ACAD
1000
MTEXTBEGIN
1070
    73
1070
     1
1070
    44
1040
1.0
1070
    74
1070
     0
1000
MTEXTEND
  0
MTEXT
  5
193FA
330
193C1
100
AcDbEntity
  8
虚线
 62
     7
370
    18
100
AcDbMText
 10
1469.820740559366
 20
138.3128841109992
 30
0.0
 40
13.40244807804881
 41
74.25131819943986
 71
     5
 72
     5
  1
{\fSimSun|b0|i0|c134|p54;数 量}
 73
     1
 44
1.0
1001
ACAD
1000
MTEXTBEGIN
1070
    73
1070
     1
1070
    44
1040
1.0
1070
    74
1070
     0
1000
MTEXTEND
  0
LINE
  5
193FB
330
193C1
100
AcDbEntity
  8
0
370
    -3
100
AcDbLine
 10
1465.33666792232
 20
206.6043015599389
 30
0.0
 11
1117.453876217651
 21
206.6043015599389
 31
0.0
  0
MTEXT
  5
193FC
330
193C1
100
AcDbEntity
  8
虚线
 62
     7
370
    18
100
AcDbMText
 10
1255.707185231962
 20
198.3780834328627
 30
0.0
 40
10.37515362427864
 41
74.933289825913
 71
     5
 72
     5
  1
{\fSimSun|b0|i0|c134|p2;\H0.9027x;POSITION}
 73
     1
 44
1.0
1001
ACAD
1000
MTEXTBEGIN
1070
    73
1070
     1
1070
    44
1040
1.0
1070
    74
1070
     0
1000
MTEXTEND
  0
MTEXT
  5
193FD
330
193C1
100
AcDbEntity
  8
虚线
 62
     7
370
    18
100
AcDbMText
 10
1470.039971946147
 20
90.63800288870334
 30
0.0
 40
13.40244807804881
 41
74.25131819944003
 71
     5
 72
     5
  1
{\fSimSun|b0|i0|c134|p54;比 例}
 73
     1
 44
1.0
1001
ACAD
1000
MTEXTBEGIN
1070
    73
1070
     1
1070
    44
1040
1.0
1070
    74
1070
     0
1000
MTEXTEND
  0
MTEXT
  5
193FE
330
193C1
100
AcDbEntity
  8
虚线
 62
     7
370
    18
100
AcDbMText
 10
1469.963855249787
 20
46.93765856724894
 30
0.0
 40
13.40244807804881
 41
74.20060909524568
 71
     5
 72
     5
  1
{\fSimSun|b0|i0|c134|p54;版 次}
 73
     1
 44
1.0
1001
ACAD
1000
MTEXTBEGIN
1070
    73
1070
     1
1070
    44
1040
1.0
1070
    74
1070
     0
1000
MTEXTEND
  0
LINE
  5
193FF
330
193C1
100
AcDbEntity
  8
0
370
    -3
100
AcDbLine
 10
1507.165631045866
 20
170.9397109764777
 30
0.0
 11
1507.165631045866
 21
34.64999260459808
 31
0.0
  0
MTEXT
  5
19400
330
193C1
100
AcDbEntity
  8
虚线
 62
     7
370
    18
100
AcDbMText
 10
1470.039971946147
 20
65.04703934136523
 30
0.0
 40
12.9689420303483
 41
74.25131819944026
 71
     5
 72
     5
  1
{\fSimSun|b0|i0|c134|p2;REV.} 
 73
     1
 44
1.0
1001
ACAD
1000
MTEXTBEGIN
1070
    73
1070
     1
1070
    44
1040
1.0
1070
    74
1070
     0
1000
MTEXTEND
  0
LINE
  5
19401
330
193C1
100
AcDbEntity
  8
0
370
    -3
100
AcDbLine
 10
1432.914312846425
 20
170.9397109764777
 30
0.0
 11
1432.914312846425
 21
34.64999260459808
 31
0.0
  0
LINE
  5
19402
330
193C1
100
AcDbEntity
  8
0
370
    -3
100
AcDbLine
 10
1309.595148166243
 20
170.9397109764777
 30
0.0
 11
1309.595148166227
 21
34.64999260459808
 31
0.0
  0
MTEXT
  5
19403
330
193C1
100
AcDbEntity
  8
虚线
 62
     7
370
    18
100
AcDbMText
 10
1470.039971946147
 20
111.0690640357679
 30
0.0
 40
12.9689420303483
 41
74.25131819943953
 71
     5
 72
     5
  1
{\fSimSun|b0|i0|c134|p2;SCALE}
 73
     1
 44
1.0
1001
ACAD
1000
MTEXTBEGIN
1070
    73
1070
     1
1070
    44
1040
1.0
1070
    74
1070
     0
1000
MTEXTEND
  0
LINE
  5
19404
330
193C1
100
AcDbEntity
  8
0
370
    -3
100
AcDbLine
 10
1859.86989285183
 20
76.18472982013918
 30
0.0
 11
1117.453876217651
 21
76.18472982013918
 31
0.0
  0
LINE
  5
19405
330
193C1
100
AcDbEntity
  8
0
370
    -3
100
AcDbLine
 10
1859.86989285183
 20
123.5622203983112
 30
0.0
 11
1117.453876217651
 21
123.5622203983112
 31
0.0
  0
MTEXT
  5
19406
330
193C1
100
AcDbEntity
  8
虚线
 62
     7
370
    18
100
AcDbMText
 10
1541.61104773783
 20
56.44156238151118
 30
0.0
 40
13.86
 41
68.8908333839262
 71
     5
 72
     5
  1
{\fSimSun|b0|i0|c134|p2;A/0}
 73
     1
 44
1.0
1001
ACAD
1000
MTEXTBEGIN
1070
    73
1070
     1
1070
    44
1040
1.0
1070
    74
1070
     0
1000
MTEXTEND
  0
LINE
  5
19407
330
193C1
100
AcDbEntity
  8
0
370
    -3
100
AcDbLine
 10
1859.86989285183
 20
170.9397109764777
 30
0.0
 11
1117.453876217651
 21
170.9397109764777
 31
0.0
  0
LINE
  5
19408
330
193C1
100
AcDbEntity
  8
0
370
    -3
100
AcDbLine
 10
1465.33666792232
 20
340.9962602436281
 30
0.0
 11
1465.33666792232
 21
170.9397109764777
 31
0.0
  0
LINE
  5
19409
330
193C1
100
AcDbEntity
  8
0
370
    -3
100
AcDbLine
 10
1376.562020094154
 20
259.2102211176425
 30
0.0
 11
1376.56202009415
 21
170.9397109764777
 31
0.0
  0
LINE
  5
1940A
330
193C1
100
AcDbEntity
  8
0
370
    -3
100
AcDbLine
 10
1293.173830144928
 20
259.2102211176425
 30
0.0
 11
1293.173830144913
 21
170.9397109764777
 31
0.0
  0
LINE
  5
1940B
330
193C1
100
AcDbEntity
  8
0
370
    60
100
AcDbLine
 10
86.62500263711264
 20
34.64999260459808
 30
0.0
 11
1859.86989285183
 21
34.64999260459808
 31
0.0
  0
MTEXT
  5
1940C
330
193C1
100
AcDbEntity
  8
标注线
  6
Continuous
100
AcDbMText
 10
1662.603280387075
 20
216.4745655432816
 30
0.0
 40
15.0
 41
394.5332249295102
 71
     5
 72
     5
  1
{\C7;KSSX-5080R(HA103-R15)\fSimSun|b0|i0|c134|p54;产品图}
 73
     1
 44
1.0
1001
ACAD
1000
ACAD_MTEXT_DEFINED_HEIGHT_BEGIN
1070
    46
1040
0.0
1000
ACAD_MTEXT_DEFINED_HEIGHT_END
1000
MTEXTBEGIN
1070
    73
1070
     1
1070
    44
1040
1.0
1070
    74
1070
     0
1000
MTEXTEND
  0
LINE
  5
1940D
330
193C1
100
AcDbEntity
  8
0
370
    60
100
AcDbLine
 10
1894.519892851829
 20
1317.340094361514
 30
0.0
 11
1894.519892851817
 21
-0.0000073953997344
 31
0.0
  0
LINE
  5
1940E
330
193C1
100
AcDbEntity
  8
0
370
    60
100
AcDbLine
 10
0.0000026371089916
 20
-0.0000073953997344
 30
0.0
 11
1894.519892851817
 21
-0.0000073953997344
 31
0.0
  0
MTEXT
  5
1940F
330
193C1
100
AcDbEntity
  8
虚线
 62
     7
370
    18
100
AcDbMText
 10
1762.241017960811
 20
148.2466420821947
 30
0.0
 40
16.63199999999999
 41
195.2577497820416
 71
     5
 72
     5
  1
{\fSimSun|b0|i0|c134|p2;T=1.2mm  SUS304}
 73
     1
 44
1.0
1001
ACAD
1000
MTEXTBEGIN
1070
    73
1070
     1
1070
    44
1040
1.0
1070
    74
1070
     0
1000
MTEXTEND
  0
MTEXT
  5
19410
330
193C1
100
AcDbEntity
  8
标注线
  6
Continuous
 62
     7
100
AcDbMText
 10
1291.395272069987
 20
311.6539961583585
 30
0.0
 40
23.95008000000001
 41
347.8827917046697
 71
     5
 72
     5
  1
{\fKaiTi_GB2312|b0|i0|c134|p49;东原厨具实业有限公司}
 73
     1
 44
1.0
1001
ACAD
1000
MTEXTBEGIN
1070
    73
1070
     1
1070
    44
1040
1.0
1070
    74
1070
     0
1000
MTEXTEND
  0
MTEXT
  5
19411
330
193C1
100
AcDbEntity
  8
虚线
 62
     7
370
    18
100
AcDbMText
 10
1291.395272069987
 20
276.3174580428895
 30
0.0
 40
12.1968
 41
347.8827917046701
 71
     5
 72
     5
  1
{\fSimSun|b0|i0|c134|p2;DONGYUAN KITCHENWARE INDUSTRIAL CO.,LTD}
 73
     1
 44
1.0
1001
ACAD
1000
MTEXTBEGIN
1070
    73
1070
     1
1070
    44
1040
1.0
1070
    74
1070
     0
1000
MTEXTEND
  0
MTEXT
  5
19412
330
193C1
100
AcDbEntity
  8
虚线
 62
     7
370
    18
100
AcDbMText
 10
1251.817907324957
 20
146.67179118891
 30
0.0
 40
18.48
 41
115.5544816825673
 71
     5
 72
     5
  1
{\fSimSun|b0|i0|c134|p2;谢海帆}
 73
     1
 44
1.0
1001
ACAD
1000
MTEXTBEGIN
1070
    73
1070
     1
1070
    44
1040
1.0
1070
    74
1070
     0
1000
MTEXTEND
  0
MTEXT
  5
19413
330
193C1
100
AcDbEntity
  8
虚线
 62
     7
370
    18
100
AcDbMText
 10
1371.254730506332
 20
145.3546538940972
 30
0.0
 40
13.86
 41
123.3191646801861
 71
     5
 72
     5
  1
{\fSimSun|b0|i0|c134|p2;2008.12.17}
 73
     1
 44
1.0
1001
ACAD
1000
ACAD_MTEXT_DEFINED_HEIGHT_BEGIN
1070
    46
1040
0.0
1000
ACAD_MTEXT_DEFINED_HEIGHT_END
1000
MTEXTBEGIN
1070
    73
1070
     1
1070
    44
1040
1.0
1070
    74
1070
     0
1000
MTEXTEND
  0
MTEXT
  5
19414
330
193C1
100
AcDbEntity
  8
虚线
 62
     7
370
    18
100
AcDbMText
 10
1643.979635335765
 20
52.79811164229613
 30
0.0
 40
13.40244807804881
 41
9.056188835122439
 71
     1
 72
     5
  1
{\fSimSun|b0|i0|c134|p2;1}
 73
     1
 44
1.0
1001
ACAD
1000
MTEXTBEGIN
1070
    73
1070
     1
1070
    44
1040
1.0
1070
    74
1070
     0
1000
MTEXTEND
  0
MTEXT
  5
19415
330
193C1
100
AcDbEntity
  8
虚线
 62
     7
370
    18
100
AcDbMText
 10
1785.045944460916
 20
52.30676055727236
 30
0.0
 40
13.40244807804881
 41
10.21006116495092
 71
     1
 72
     5
  1
{\fSimSun|b0|i0|c134|p2;1}
 73
     1
 44
1.0
1001
ACAD
1000
MTEXTBEGIN
1070
    73
1070
     1
1070
    44
1040
1.0
1070
    74
1070
     0
1000
MTEXTEND
  0
LINE
  5
19416
330
193C1
100
AcDbEntity
  8
0
370
    60
100
AcDbLine
 10
1859.86989285183
 20
1282.690094361514
 30
0.0
 11
86.62500263711264
 21
1282.690094361514
 31
0.0
  0
LINE
  5
19417
330
193C1
100
AcDbEntity
  8
0
370
    60
100
AcDbLine
 10
86.62500263711264
 20
34.64999260459808
 30
0.0
 11
86.62500263711264
 21
1282.690094361514
 31
0.0
  0
LINE
  5
19418
330
193C1
100
AcDbEntity
  8
0
370
    60
100
AcDbLine
 10
1894.519892851829
 20
1317.340094361514
 30
0.0
 11
0.0000026371089916
 21
1317.340094361512
 31
0.0
  0
LINE
  5
19419
330
193C1
100
AcDbEntity
  8
0
370
    60
100
AcDbLine
 10
0.0000026371089916
 20
-0.0000073953997344
 30
0.0
 11
0.0000026371089916
 21
1317.340094361512
 31
0.0
  0
MTEXT
  5
1941A
330
193C1
100
AcDbEntity
  8
虚线
 62
     7
370
    18
100
AcDbMText
 10
1706.388302324221
 20
322.0630216314348
 30
0.0
 40
15.36
 41
306.9631810552159
 71
     5
 72
     5
  1
{\fSimSun|b0|i0|c134|p2;圆角R15手工单盆}
 73
     1
 44
1.0
1001
ACAD
1000
ACAD_MTEXT_DEFINED_HEIGHT_BEGIN
1070
    46
1040
20.22399999999779
1000
ACAD_MTEXT_DEFINED_HEIGHT_END
1000
MTEXTBEGIN
1070
    73
1070
     1
1070
    44
1040
1.0
1070
    74
1070
     0
1000
MTEXTEND
  0
ENDBLK
  5
1941E
330
193C1
100
AcDbEntity
  8
0
100
AcDbBlockEnd
  0
BLOCK
  5
19958
330
1994F
100
AcDbEntity
  8
0
100
AcDbBlockBegin
  2
A$C5F976A2B
 70
     0
 10
0.0
 20
0.0
 30
0.0
  3
A$C5F976A2B
  1

  0
LINE
  5
19950
330
1994F
100
AcDbEntity
  8
粗实线
100
AcDbLine
 10
25.00000000000091
 20
-5.0
 30
0.0
 11
28.99999999999909
 21
-5.0
 31
0.0
  0
LINE
  5
19951
330
1994F
100
AcDbEntity
  8
粗实线
100
AcDbLine
 10
-28.99999999999909
 20
-5.0
 30
0.0
 11
-24.99999999999909
 21
-5.0
 31
0.0
  0
LINE
  5
19952
330
1994F
100
AcDbEntity
  8
粗实线
100
AcDbLine
 10
33.5
 20
0.0
 30
0.0
 11
28.99999999999909
 21
-5.0
 31
0.0
  0
LINE
  5
19953
330
1994F
100
AcDbEntity
  8
细实线
100
AcDbLine
 10
-33.5
 20
0.0
 30
0.0
 11
33.5
 21
0.0
 31
0.0
  0
LINE
  5
19954
330
1994F
100
AcDbEntity
  8
细实线
100
AcDbLine
 10
-24.99999999999909
 20
-5.0
 30
0.0
 11
25.00000000000091
 21
-5.0
 31
0.0
  0
LINE
  5
19955
330
1994F
100
AcDbEntity
  8
粗实线
100
AcDbLine
 10
-33.5
 20
0.0
 30
0.0
 11
-28.99999999999909
 21
-5.0
 31
0.0
  0
ENDBLK
  5
19959
330
1994F
100
AcDbEntity
  8
0
100
AcDbBlockEnd
  0
BLOCK
  5
19A35
330
19A34
100
AcDbEntity
  8
0
100
AcDbBlockBegin
  2
*D16
 70
     1
 10
0.0
 20
0.0
 30
0.0
  3
*D16
  1

  0
LINE
  5
19A36
330
19A34
100
AcDbEntity
  8
标注线
 62
     6
370
    15
100
AcDbLine
 10
6665.529293856481
 20
4357.916197937451
 30
0.0
 11
6665.529293856481
 21
4278.198524734365
 31
0.0
  0
LINE
  5
19A37
330
19A34
100
AcDbEntity
  8
标注线
 62
     6
370
    15
100
AcDbLine
 10
6893.831859773462
 20
4357.916197937451
 30
0.0
 11
6893.831859773462
 21
4278.198524734365
 31
0.0
  0
LINE
  5
19A38
330
19A34
100
AcDbEntity
  8
标注线
 62
     6
370
    15
100
AcDbLine
 10
6680.529293856482
 20
4286.198524734365
 30
0.0
 11
6878.831859773462
 21
4286.198524734365
 31
0.0
  0
SOLID
  5
19A39
330
19A34
100
AcDbEntity
  8
标注线
 62
     6
100
AcDbTrace
 10
6680.529293856482
 20
4288.698524734365
 30
0.0
 11
6680.529293856482
 21
4283.698524734365
 31
0.0
 12
6665.529293856481
 22
4286.198524734365
 32
0.0
 13
6665.529293856481
 23
4286.198524734365
 33
0.0
  0
SOLID
  5
19A3A
330
19A34
100
AcDbEntity
  8
标注线
 62
     6
100
AcDbTrace
 10
6878.831859773462
 20
4288.698524734365
 30
0.0
 11
6878.831859773462
 21
4283.698524734365
 31
0.0
 12
6893.831859773462
 22
4286.198524734365
 32
0.0
 13
6893.831859773462
 23
4286.198524734365
 33
0.0
  0
MTEXT
  5
19A3B
330
19A34
100
AcDbEntity
  8
标注线
 62
     0
100
AcDbMText
 10
6779.680576814971
 20
4299.198524734365
 30
0.0
 40
20.0
 41
0.0
 71
     5
 72
     1
  1
45
 73
     1
 44
1.0
1001
ACAD
1000
MTEXTBEGIN
1070
    73
1070
     1
1070
    44
1040
1.0
1070
    74
1070
     0
1000
MTEXTEND
  0
POINT
  5
19A3C
330
19A34
100
AcDbEntity
  8
Defpoints
 62
     0
100
AcDbPoint
 10
6665.529293856481
 20
4365.91619793745
 30
0.0
  0
POINT
  5
19A3D
330
19A34
100
AcDbEntity
  8
Defpoints
 62
     0
100
AcDbPoint
 10
6893.831859773462
 20
4365.91619793745
 30
0.0
  0
POINT
  5
19A3E
330
19A34
100
AcDbEntity
  8
Defpoints
 62
     0
100
AcDbPoint
 10
6893.831859773462
 20
4286.198524734365
 30
0.0
  0
ENDBLK
  5
19A3F
330
19A34
100
AcDbEntity
  8
0
100
AcDbBlockEnd
  0
BLOCK
  5
19A41
330
19A40
100
AcDbEntity
  8
0
100
AcDbBlockBegin
  2
*D17
 70
     1
 10
0.0
 20
0.0
 30
0.0
  3
*D17
  1

  0
LINE
  5
19A42
330
19A40
100
AcDbEntity
  8
标注线
 62
     6
370
    15
100
AcDbLine
 10
6678.32042503549
 20
4388.435672293355
 30
0.0
 11
6958.783831502485
 21
4388.435672293355
 31
0.0
  0
LINE
  5
19A43
330
19A40
100
AcDbEntity
  8
标注线
 62
     6
370
    15
100
AcDbLine
 10
6678.32042503549
 20
4339.803399282984
 30
0.0
 11
6958.783831502485
 21
4339.803399282984
 31
0.0
  0
LINE
  5
19A44
330
19A40
100
AcDbEntity
  8
标注线
 62
     6
370
    15
100
AcDbLine
 10
6950.783831502485
 20
4373.435672293355
 30
0.0
 11
6950.783831502485
 21
4354.803399282984
 31
0.0
  0
SOLID
  5
19A45
330
19A40
100
AcDbEntity
  8
标注线
 62
     6
100
AcDbTrace
 10
6948.283831502486
 20
4373.435672293355
 30
0.0
 11
6953.283831502486
 21
4373.435672293355
 31
0.0
 12
6950.783831502485
 22
4388.435672293355
 32
0.0
 13
6950.783831502485
 23
4388.435672293355
 33
0.0
  0
SOLID
  5
19A46
330
19A40
100
AcDbEntity
  8
标注线
 62
     6
100
AcDbTrace
 10
6948.283831502486
 20
4354.803399282984
 30
0.0
 11
6953.283831502486
 21
4354.803399282984
 31
0.0
 12
6950.783831502485
 22
4339.803399282984
 32
0.0
 13
6950.783831502485
 23
4339.803399282984
 33
0.0
  0
MTEXT
  5
19A47
330
19A40
100
AcDbEntity
  8
标注线
 62
     0
100
AcDbMText
 10
6935.879069597723
 20
4364.119535788171
 30
0.0
 40
20.0
 41
0.0
 71
     5
 72
     1
  1
9,6
 11
0.0000000000000001
 21
1.0
 31
0.0
 73
     1
 44
1.0
1001
ACAD
1000
MTEXTBEGIN
1070
    73
1070
     1
1070
    44
1040
1.0
1070
    74
1070
     0
1000
MTEXTEND
  0
POINT
  5
19A48
330
19A40
100
AcDbEntity
  8
Defpoints
 62
     0
100
AcDbPoint
 10
6670.32042503549
 20
4388.435672293355
 30
0.0
  0
POINT
  5
19A49
330
19A40
100
AcDbEntity
  8
Defpoints
 62
     0
100
AcDbPoint
 10
6670.32042503549
 20
4339.803399282984
 30
0.0
  0
POINT
  5
19A4A
330
19A40
100
AcDbEntity
  8
Defpoints
 62
     0
100
AcDbPoint
 10
6950.783831502485
 20
4339.803399282984
 30
0.0
  0
ENDBLK
  5
19A4B
330
19A40
100
AcDbEntity
  8
0
100
AcDbBlockEnd
  0
BLOCK
  5
19A56
330
19A4C
100
AcDbEntity
  8
0
100
AcDbBlockBegin
  2
A$C127578BA
 70
     0
 10
0.0
 20
0.0
 30
0.0
  3
A$C127578BA
  1

  0
INSERT
  5
19A4D
330
19A4C
100
AcDbEntity
  8
标注
100
AcDbBlockReference
  2
d
 10
-24933.72968075601
 20
1906.112268129531
 30
0.0
 41
0.8041958041940233
 42
0.8041958041940233
 43
0.8041958041958041
  0
DIMENSION
  5
19A4E
330
19A4C
100
AcDbEntity
  8
标注线
100
AcDbDimension
  2
*D16
 10
230.0754306732561
 20
82.86479617013174
 30
0.0
 11
115.9241477147661
 21
95.86479617013173
 31
0.0
 12
-6663.756429100205
 22
-4203.333728564234
 32
0.0
  1
45
 71
     5
 42
228.3025659169798
  3
ISO-25
100
AcDbAlignedDimension
 13
1.772864756276248
 23
162.5824693732174
 33
0.0
 14
230.0754306732561
 24
162.5824693732174
 34
0.0
100
AcDbRotatedDimension
  0
DIMENSION
  5
19A4F
330
19A4C
100
AcDbEntity
  8
标注线
100
AcDbDimension
  2
*D17
 10
287.0274024022801
 20
136.4696707187504
 30
0.0
 11
272.1226404975177
 21
160.7858072239378
 31
0.0
 12
-6663.756429100205
 22
-4203.333728564234
 32
0.0
  1
9,6
 71
     5
 42
48.63227301037113
  3
ISO-25
100
AcDbAlignedDimension
 13
6.563995935284765
 23
185.1019437291215
 33
0.0
 14
6.563995935284765
 24
136.4696707187504
 34
0.0
 50
90.0
100
AcDbRotatedDimension
  0
MTEXT
  5
19A50
330
19A4C
100
AcDbEntity
  8
标注线
100
AcDbMText
 10
97.47059614554746
 20
45.96456236230369
 30
0.0
 40
20.0
 41
100.0
 71
     1
 72
     1
  1
{\H0.75x;Logo\P} 
 73
     1
 44
1.0
1001
ACAD
1000
ACAD_MTEXT_DEFINED_HEIGHT_BEGIN
1070
    46
1040
0.0
1000
ACAD_MTEXT_DEFINED_HEIGHT_END
1000
MTEXTBEGIN
1070
    73
1070
     1
1070
    44
1040
1.0
1070
    74
1070
     0
1000
MTEXTEND
  0
LINE
  5
19A51
330
19A4C
100
AcDbEntity
  8
细实线
100
AcDbLine
 10
86.05147318735545
 20
23.73391849406835
 30
0.0
 11
158.6604288644157
 21
23.73391849406835
 31
0.0
  0
LINE
  5
19A52
330
19A4C
100
AcDbEntity
  8
细实线
100
AcDbLine
 10
86.05147318735545
 20
21.00140549976277
 30
0.0
 11
158.6604288644157
 21
21.00140549976277
 31
0.0
  0
MTEXT
  5
19A53
330
19A4C
100
AcDbEntity
  8
标注线
100
AcDbMText
 10
106.4389488665183
 20
14.99999466021472
 30
0.0
 40
20.0
 41
100.0
 71
     1
 72
     1
  1
{\H0.75x;1:1\P} 
 73
     1
 44
1.0
1001
ACAD
1000
ACAD_MTEXT_DEFINED_HEIGHT_BEGIN
1070
    46
1040
0.0
1000
ACAD_MTEXT_DEFINED_HEIGHT_END
1000
MTEXTBEGIN
1070
    73
1070
     1
1070
    44
1040
1.0
1070
    74
1070
     0
1000
MTEXTEND
  0
ENDBLK
  5
19A57
330
19A4C
100
AcDbEntity
  8
0
100
AcDbBlockEnd
  0
BLOCK
  5
19BB2
330
19BB1
100
AcDbEntity
  8
0
100
AcDbBlockBegin
  2
*D19
 70
     1
 10
0.0
 20
0.0
 30
0.0
  3
*D19
  1

  0
LINE
  5
19BB3
330
19BB1
100
AcDbEntity
  8
标注线
 62
     6
370
    15
100
AcDbLine
 10
5711.42603822328
 20
6503.698586599027
 30
0.0
 11
5711.42603822328
 21
6401.698799341564
 31
0.0
  0
LINE
  5
19BB4
330
19BB1
100
AcDbEntity
  8
标注线
 62
     6
370
    15
100
AcDbLine
 10
6473.426038223282
 20
6503.698586599027
 30
0.0
 11
6473.426038223282
 21
6401.698799341564
 31
0.0
  0
LINE
  5
19BB5
330
19BB1
100
AcDbEntity
  8
标注线
 62
     6
370
    15
100
AcDbLine
 10
5726.42603822328
 20
6409.698799341564
 30
0.0
 11
6458.426038223283
 21
6409.698799341564
 31
0.0
  0
SOLID
  5
19BB6
330
19BB1
100
AcDbEntity
  8
标注线
 62
     6
100
AcDbTrace
 10
5726.42603822328
 20
6412.198799341564
 30
0.0
 11
5726.42603822328
 21
6407.198799341564
 31
0.0
 12
5711.42603822328
 22
6409.698799341564
 32
0.0
 13
5711.42603822328
 23
6409.698799341564
 33
0.0
  0
SOLID
  5
19BB7
330
19BB1
100
AcDbEntity
  8
标注线
 62
     6
100
AcDbTrace
 10
6458.426038223283
 20
6412.198799341564
 30
0.0
 11
6458.426038223283
 21
6407.198799341564
 31
0.0
 12
6473.426038223282
 22
6409.698799341564
 32
0.0
 13
6473.426038223282
 23
6409.698799341564
 33
0.0
  0
MTEXT
  5
19BB8
330
19BB1
100
AcDbEntity
  8
标注线
 62
     0
100
AcDbMText
 10
6092.426038223281
 20
6422.698799341564
 30
0.0
 40
20.0
 41
0.0
 71
     5
 72
     1
  1
762
 73
     1
 44
1.0
1001
ACAD
1000
MTEXTBEGIN
1070
    73
1070
     1
1070
    44
1040
1.0
1070
    74
1070
     0
1000
MTEXTEND
  0
POINT
  5
19BB9
330
19BB1
100
AcDbEntity
  8
Defpoints
 62
     0
100
AcDbPoint
 10
5711.42603822328
 20
6511.698586599028
 30
0.0
  0
POINT
  5
19BBA
330
19BB1
100
AcDbEntity
  8
Defpoints
 62
     0
100
AcDbPoint
 10
6473.426038223282
 20
6511.698586599028
 30
0.0
  0
POINT
  5
19BBB
330
19BB1
100
AcDbEntity
  8
Defpoints
 62
     0
100
AcDbPoint
 10
6473.426038223282
 20
6409.698799341564
 30
0.0
  0
ENDBLK
  5
19BBC
330
19BB1
100
AcDbEntity
  8
0
100
AcDbBlockEnd
  0
BLOCK
  5
19BBE
330
19BBD
100
AcDbEntity
  8
0
100
AcDbBlockBegin
  2
*D20
 70
     1
 10
0.0
 20
0.0
 30
0.0
  3
*D20
  1

  0
LINE
  5
19BBF
330
19BBD
100
AcDbEntity
  8
标注线
 62
     6
370
    15
100
AcDbLine
 10
6473.426038223282
 20
6503.698586599027
 30
0.0
 11
6473.426038223282
 21
6401.698799341564
 31
0.0
  0
LINE
  5
19BC0
330
19BBD
100
AcDbEntity
  8
标注线
 62
     6
370
    15
100
AcDbLine
 10
6498.826038223282
 20
6473.298586599027
 30
0.0
 11
6498.826038223282
 21
6401.698799341564
 31
0.0
  0
LINE
  5
19BC1
330
19BBD
100
AcDbEntity
  8
标注线
 62
     6
370
    15
100
AcDbLine
 10
6458.426038223283
 20
6409.698799341564
 30
0.0
 11
6443.426038223282
 21
6409.698799341564
 31
0.0
  0
LINE
  5
19BC2
330
19BBD
100
AcDbEntity
  8
标注线
 62
     6
370
    15
100
AcDbLine
 10
6513.826038223282
 20
6409.698799341564
 30
0.0
 11
6596.730800128042
 21
6409.698799341564
 31
0.0
  0
LINE
  5
19BC3
330
19BBD
100
AcDbEntity
  8
标注线
 62
     6
370
    15
100
AcDbLine
 10
6473.426038223282
 20
6409.698799341564
 30
0.0
 11
6498.826038223282
 21
6409.698799341564
 31
0.0
  0
SOLID
  5
19BC4
330
19BBD
100
AcDbEntity
  8
标注线
 62
     6
100
AcDbTrace
 10
6458.426038223283
 20
6412.198799341564
 30
0.0
 11
6458.426038223283
 21
6407.198799341564
 31
0.0
 12
6473.426038223282
 22
6409.698799341564
 32
0.0
 13
6473.426038223282
 23
6409.698799341564
 33
0.0
  0
SOLID
  5
19BC5
330
19BBD
100
AcDbEntity
  8
标注线
 62
     6
100
AcDbTrace
 10
6513.826038223282
 20
6412.198799341564
 30
0.0
 11
6513.826038223282
 21
6407.198799341564
 31
0.0
 12
6498.826038223282
 22
6409.698799341564
 32
0.0
 13
6498.826038223282
 23
6409.698799341564
 33
0.0
  0
MTEXT
  5
19BC6
330
19BBD
100
AcDbEntity
  8
标注线
 62
     0
100
AcDbMText
 10
6562.778419175663
 20
6424.603561246326
 30
0.0
 40
20.0
 41
0.0
 71
     5
 72
     1
  1
25,4
 73
     1
 44
1.0
1001
ACAD
1000
MTEXTBEGIN
1070
    73
1070
     1
1070
    44
1040
1.0
1070
    74
1070
     0
1000
MTEXTEND
  0
POINT
  5
19BC7
330
19BBD
100
AcDbEntity
  8
Defpoints
 62
     0
100
AcDbPoint
 10
6473.426038223282
 20
6511.698586599028
 30
0.0
  0
POINT
  5
19BC8
330
19BBD
100
AcDbEntity
  8
Defpoints
 62
     0
100
AcDbPoint
 10
6498.826038223282
 20
6481.298586599027
 30
0.0
  0
POINT
  5
19BC9
330
19BBD
100
AcDbEntity
  8
Defpoints
 62
     0
100
AcDbPoint
 10
6498.826038223282
 20
6409.698799341564
 30
0.0
  0
ENDBLK
  5
19BCA
330
19BBD
100
AcDbEntity
  8
0
100
AcDbBlockEnd
  0
BLOCK
  5
19BCC
330
19BCB
100
AcDbEntity
  8
0
100
AcDbBlockBegin
  2
*D21
 70
     1
 10
0.0
 20
0.0
 30
0.0
  3
*D21
  1

  0
LINE
  5
19BCD
330
19BCB
100
AcDbEntity
  8
标注线
 62
     6
370
    15
100
AcDbLine
 10
6466.426038223282
 20
6903.098586599028
 30
0.0
 11
6604.966160340947
 21
6903.098586599028
 31
0.0
  0
LINE
  5
19BCE
330
19BCB
100
AcDbEntity
  8
标注线
 62
     6
370
    15
100
AcDbLine
 10
6466.426038223282
 20
6496.698586599027
 30
0.0
 11
6604.966160340947
 21
6496.698586599027
 31
0.0
  0
LINE
  5
19BCF
330
19BCB
100
AcDbEntity
  8
标注线
 62
     6
370
    15
100
AcDbLine
 10
6596.966160340947
 20
6888.098586599028
 30
0.0
 11
6596.966160340947
 21
6511.698586599028
 31
0.0
  0
SOLID
  5
19BD0
330
19BCB
100
AcDbEntity
  8
标注线
 62
     6
100
AcDbTrace
 10
6594.466160340947
 20
6888.098586599028
 30
0.0
 11
6599.466160340949
 21
6888.098586599028
 31
0.0
 12
6596.966160340947
 22
6903.098586599028
 32
0.0
 13
6596.966160340947
 23
6903.098586599028
 33
0.0
  0
SOLID
  5
19BD1
330
19BCB
100
AcDbEntity
  8
标注线
 62
     6
100
AcDbTrace
 10
6594.466160340947
 20
6511.698586599028
 30
0.0
 11
6599.466160340949
 21
6511.698586599028
 31
0.0
 12
6596.966160340947
 22
6496.698586599027
 32
0.0
 13
6596.966160340947
 23
6496.698586599027
 33
0.0
  0
MTEXT
  5
19BD2
330
19BCB
100
AcDbEntity
  8
标注线
 62
     0
100
AcDbMText
 10
6582.061398436184
 20
6699.89858659903
 30
0.0
 40
20.0
 41
0.0
 71
     5
 72
     1
  1
406,4
 11
0.0000000000000001
 21
1.0
 31
0.0
 73
     1
 44
1.0
1001
ACAD
1000
MTEXTBEGIN
1070
    73
1070
     1
1070
    44
1040
1.0
1070
    74
1070
     0
1000
MTEXTEND
  0
POINT
  5
19BD3
330
19BCB
100
AcDbEntity
  8
Defpoints
 62
     0
100
AcDbPoint
 10
6458.426038223283
 20
6903.098586599028
 30
0.0
  0
POINT
  5
19BD4
330
19BCB
100
AcDbEntity
  8
Defpoints
 62
     0
100
AcDbPoint
 10
6458.426038223283
 20
6496.698586599027
 30
0.0
  0
POINT
  5
19BD5
330
19BCB
100
AcDbEntity
  8
Defpoints
 62
     0
100
AcDbPoint
 10
6596.966160340947
 20
6496.698586599027
 30
0.0
  0
ENDBLK
  5
19BD6
330
19BCB
100
AcDbEntity
  8
0
100
AcDbBlockEnd
  0
BLOCK
  5
19BD8
330
19BD7
100
AcDbEntity
  8
0
100
AcDbBlockBegin
  2
*D22
 70
     1
 10
0.0
 20
0.0
 30
0.0
  3
*D22
  1

  0
LINE
  5
19BD9
330
19BD7
100
AcDbEntity
  8
标注线
 62
     6
370
    15
100
AcDbLine
 10
6466.426038223282
 20
6903.098586599027
 30
0.0
 11
6604.966160340947
 21
6903.098586599027
 31
0.0
  0
LINE
  5
19BDA
330
19BD7
100
AcDbEntity
  8
标注线
 62
     6
370
    15
100
AcDbLine
 10
6496.826038223281
 20
6928.498586599028
 30
0.0
 11
6604.966160340947
 21
6928.498586599028
 31
0.0
  0
LINE
  5
19BDB
330
19BD7
100
AcDbEntity
  8
标注线
 62
     6
370
    15
100
AcDbLine
 10
6596.966160340947
 20
6888.098586599028
 30
0.0
 11
6596.966160340947
 21
6873.098586599027
 31
0.0
  0
LINE
  5
19BDC
330
19BD7
100
AcDbEntity
  8
标注线
 62
     6
370
    15
100
AcDbLine
 10
6596.966160340947
 20
6943.498586599028
 30
0.0
 11
6596.966160340947
 21
7026.40334850379
 31
0.0
  0
LINE
  5
19BDD
330
19BD7
100
AcDbEntity
  8
标注线
 62
     6
370
    15
100
AcDbLine
 10
6596.966160340947
 20
6903.098586599027
 30
0.0
 11
6596.966160340947
 21
6928.498586599028
 31
0.0
  0
SOLID
  5
19BDE
330
19BD7
100
AcDbEntity
  8
标注线
 62
     6
100
AcDbTrace
 10
6594.466160340947
 20
6888.098586599028
 30
0.0
 11
6599.466160340949
 21
6888.098586599028
 31
0.0
 12
6596.966160340947
 22
6903.098586599027
 32
0.0
 13
6596.966160340947
 23
6903.098586599027
 33
0.0
  0
SOLID
  5
19BDF
330
19BD7
100
AcDbEntity
  8
标注线
 62
     6
100
AcDbTrace
 10
6594.466160340947
 20
6943.498586599028
 30
0.0
 11
6599.466160340949
 21
6943.498586599028
 31
0.0
 12
6596.966160340947
 22
6928.498586599028
 32
0.0
 13
6596.966160340947
 23
6928.498586599028
 33
0.0
  0
MTEXT
  5
19BE0
330
19BD7
100
AcDbEntity
  8
标注线
 62
     0
100
AcDbMText
 10
6582.061398436184
 20
6992.450967551412
 30
0.0
 40
20.0
 41
0.0
 71
     5
 72
     1
  1
25,4
 11
0.0000000000000001
 21
1.0
 31
0.0
 73
     1
 44
1.0
1001
ACAD
1000
MTEXTBEGIN
1070
    73
1070
     1
1070
    44
1040
1.0
1070
    74
1070
     0
1000
MTEXTEND
  0
POINT
  5
19BE1
330
19BD7
100
AcDbEntity
  8
Defpoints
 62
     0
100
AcDbPoint
 10
6458.426038223283
 20
6903.098586599027
 30
0.0
  0
POINT
  5
19BE2
330
19BD7
100
AcDbEntity
  8
Defpoints
 62
     0
100
AcDbPoint
 10
6488.826038223281
 20
6928.498586599028
 30
0.0
  0
POINT
  5
19BE3
330
19BD7
100
AcDbEntity
  8
Defpoints
 62
     0
100
AcDbPoint
 10
6596.966160340947
 20
6928.498586599028
 30
0.0
  0
ENDBLK
  5
19BE4
330
19BD7
100
AcDbEntity
  8
0
100
AcDbBlockEnd
  0
BLOCK
  5
19BE6
330
19BE5
100
AcDbEntity
  8
0
100
AcDbBlockBegin
  2
*D23
 70
     1
 10
0.0
 20
0.0
 30
0.0
  3
*D23
  1

  0
LINE
  5
19BE7
330
19BE5
100
AcDbEntity
  8
标注线
 62
     6
370
    15
100
AcDbLine
 10
6015.768481418328
 20
6788.098586599025
 30
0.0
 11
5993.986369890743
 21
6788.098586599025
 31
0.0
  0
LINE
  5
19BE8
330
19BE5
100
AcDbEntity
  8
标注线
 62
     6
370
    15
100
AcDbLine
 10
6015.768481418328
 20
6903.098586599028
 30
0.0
 11
5993.986369890743
 21
6903.098586599028
 31
0.0
  0
LINE
  5
19BE9
330
19BE5
100
AcDbEntity
  8
标注线
 62
     6
370
    15
100
AcDbLine
 10
6001.986369890743
 20
6803.098586599026
 30
0.0
 11
6001.986369890743
 21
6888.098586599028
 31
0.0
  0
SOLID
  5
19BEA
330
19BE5
100
AcDbEntity
  8
标注线
 62
     6
100
AcDbTrace
 10
5999.486369890743
 20
6803.098586599026
 30
0.0
 11
6004.486369890742
 21
6803.098586599026
 31
0.0
 12
6001.986369890743
 22
6788.098586599025
 32
0.0
 13
6001.986369890743
 23
6788.098586599025
 33
0.0
  0
SOLID
  5
19BEB
330
19BE5
100
AcDbEntity
  8
标注线
 62
     6
100
AcDbTrace
 10
5999.486369890743
 20
6888.098586599028
 30
0.0
 11
6004.486369890742
 21
6888.098586599028
 31
0.0
 12
6001.986369890743
 22
6903.098586599028
 32
0.0
 13
6001.986369890743
 23
6903.098586599028
 33
0.0
  0
MTEXT
  5
19BEC
330
19BE5
100
AcDbEntity
  8
标注线
 62
     0
100
AcDbMText
 10
5988.986369890741
 20
6845.598586599028
 30
0.0
 40
20.0
 41
0.0
 71
     5
 72
     1
  1
115
 11
0.0000000000000001
 21
1.0
 31
0.0
 73
     1
 44
1.0
1001
ACAD
1000
MTEXTBEGIN
1070
    73
1070
     1
1070
    44
1040
1.0
1070
    74
1070
     0
1000
MTEXTEND
  0
POINT
  5
19BED
330
19BE5
100
AcDbEntity
  8
Defpoints
 62
     0
100
AcDbPoint
 10
6023.768481418329
 20
6788.098586599025
 30
0.0
  0
POINT
  5
19BEE
330
19BE5
100
AcDbEntity
  8
Defpoints
 62
     0
100
AcDbPoint
 10
6023.768481418329
 20
6903.098586599028
 30
0.0
  0
POINT
  5
19BEF
330
19BE5
100
AcDbEntity
  8
Defpoints
 62
     0
100
AcDbPoint
 10
6001.986369890743
 20
6903.098586599028
 30
0.0
  0
ENDBLK
  5
19BF0
330
19BE5
100
AcDbEntity
  8
0
100
AcDbBlockEnd
  0
BLOCK
  5
19BF2
330
19BF1
100
AcDbEntity
  8
0
100
AcDbBlockBegin
  2
*D24
 70
     1
 10
0.0
 20
0.0
 30
0.0
  3
*D24
  1

  0
LINE
  5
19BF3
330
19BF1
100
AcDbEntity
  8
标注线
 62
     6
370
    15
100
AcDbLine
 10
5771.820677324736
 20
6570.326053388353
 30
0.0
 11
5726.426038223284
 21
6511.698586599026
 31
0.0
  0
MTEXT
  5
19BF4
330
19BF1
100
AcDbEntity
  8
标注线
 62
     0
100
AcDbMText
 10
5744.836868396527
 20
6556.71046453559
 30
0.0
 40
20.0
 41
0.0
 71
     5
 72
     1
  1
R15
 11
0.6122206880346262
 21
0.7906869349764224
 31
0.0
 73
     1
 44
1.0
1001
ACAD
1000
MTEXTBEGIN
1070
    73
1070
     1
1070
    44
1040
1.0
1070
    74
1070
     0
1000
MTEXTEND
  0
SOLID
  5
19BF5
330
19BF1
100
AcDbEntity
  8
标注线
 62
     6
100
AcDbTrace
 10
5724.449320885842
 20
6513.229138319113
 30
0.0
 11
5728.402755560725
 21
6510.16803487894
 31
0.0
 12
5717.242727902764
 22
6499.83828257438
 32
0.0
 13
5717.242727902764
 23
6499.83828257438
 33
0.0
  0
POINT
  5
19BF6
330
19BF1
100
AcDbEntity
  8
Defpoints
 62
     0
100
AcDbPoint
 10
5717.242727902764
 20
6499.83828257438
 30
0.0
  0
POINT
  5
19BF7
330
19BF1
100
AcDbEntity
  8
Defpoints
 62
     0
100
AcDbPoint
 10
5726.42603822328
 20
6511.698586599024
 30
0.0
  0
ENDBLK
  5
19BF8
330
19BF1
100
AcDbEntity
  8
0
100
AcDbBlockEnd
  0
BLOCK
  5
19BFA
330
19BF9
100
AcDbEntity
  8
0
100
AcDbBlockBegin
  2
*D25
 70
     1
 10
0.0
 20
0.0
 30
0.0
  3
*D25
  1

  0
LINE
  5
19BFB
330
19BF9
100
AcDbEntity
  8
标注线
 62
     6
370
    15
100
AcDbLine
 10
6146.384294685527
 20
6668.204903605779
 30
0.0
 11
6117.050233493991
 21
6733.384337931338
 31
0.0
  0
LINE
  5
19BFC
330
19BF9
100
AcDbEntity
  8
标注线
 62
     6
370
    15
100
AcDbLine
 10
6067.801842952567
 20
6842.812835266719
 30
0.0
 11
6061.645794134889
 21
6856.491397433642
 31
0.0
  0
MTEXT
  5
19BFD
330
19BF9
100
AcDbEntity
  8
标注线
 62
     0
100
AcDbMText
 10
6146.650042376599
 20
6699.29058199375
 30
0.0
 40
20.0
 41
0.0
 71
     5
 72
     1
  1
\U+220590
 11
0.4104032545118485
 21
-0.9119041444615124
 31
0.0
 73
     1
 44
1.0
1001
ACAD
1000
MTEXTBEGIN
1070
    73
1070
     1
1070
    44
1040
1.0
1070
    74
1070
     0
1000
MTEXTEND
  0
LINE
  5
19BFE
330
19BF9
100
AcDbEntity
  8
标注线
 62
     6
370
    15
100
AcDbLine
 10
6073.957891770246
 20
6829.134273099795
 30
0.0
 11
6110.894184676313
 21
6747.062900098261
 31
0.0
  0
SOLID
  5
19BFF
330
19BF9
100
AcDbEntity
  8
标注线
 62
     6
100
AcDbTrace
 10
6070.081603313721
 20
6843.838843402998
 30
0.0
 11
6065.522082591413
 21
6841.786827130438
 31
0.0
 12
6073.957891770246
 22
6829.134273099795
 32
0.0
 13
6073.957891770246
 23
6829.134273099795
 33
0.0
  0
SOLID
  5
19C00
330
19BF9
100
AcDbEntity
  8
标注线
 62
     6
100
AcDbTrace
 10
6119.329993855145
 20
6734.410346067616
 30
0.0
 11
6114.770473132837
 21
6732.358329795058
 31
0.0
 12
6110.894184676313
 22
6747.062900098261
 32
0.0
 13
6110.894184676313
 23
6747.062900098261
 33
0.0
  0
POINT
  5
19C01
330
19BF9
100
AcDbEntity
  8
Defpoints
 62
     0
100
AcDbPoint
 10
6110.894184676313
 20
6747.062900098261
 30
0.0
  0
POINT
  5
19C02
330
19BF9
100
AcDbEntity
  8
Defpoints
 62
     0
100
AcDbPoint
 10
6073.957891770246
 20
6829.134273099795
 30
0.0
  0
ENDBLK
  5
19C03
330
19BF9
100
AcDbEntity
  8
0
100
AcDbBlockEnd
  0
BLOCK
  5
19C05
330
19C04
100
AcDbEntity
  8
0
100
AcDbBlockBegin
  2
*D26
 70
     1
 10
0.0
 20
0.0
 30
0.0
  3
*D26
  1

  0
LINE
  5
19C06
330
19C04
100
AcDbEntity
  8
标注线
 62
     6
370
    15
100
AcDbLine
 10
6007.829361956478
 20
6657.737386898784
 30
0.0
 11
6052.959686264891
 21
6727.282001171227
 31
0.0
  0
LINE
  5
19C07
330
19C04
100
AcDbEntity
  8
标注线
 62
     6
370
    15
100
AcDbLine
 10
6131.892390181668
 20
6848.915172026821
 30
0.0
 11
6140.05784231099
 21
6861.497913839468
 31
0.0
  0
MTEXT
  5
19C08
330
19C04
100
AcDbEntity
  8
标注线
 62
     0
100
AcDbMText
 10
6015.406755141729
 20
6693.295048307426
 30
0.0
 40
20.0
 41
0.0
 71
     5
 72
     1
  1
\U+2205115
 11
0.544363475288133
 21
0.8388494541765084
 31
0.0
 73
     1
 44
1.0
1001
ACAD
1000
MTEXTBEGIN
1070
    73
1070
     1
1070
    44
1040
1.0
1070
    74
1070
     0
1000
MTEXTEND
  0
LINE
  5
19C09
330
19C04
100
AcDbEntity
  8
标注线
 62
     6
370
    15
100
AcDbLine
 10
6123.726938052346
 20
6836.332430214174
 30
0.0
 11
6061.125138394212
 21
6739.864742983876
 31
0.0
  0
SOLID
  5
19C0A
330
19C04
100
AcDbEntity
  8
标注线
 62
     6
100
AcDbTrace
 10
6129.795266546228
 20
6850.276080715042
 30
0.0
 11
6133.989513817111
 21
6847.554263338601
 31
0.0
 12
6123.726938052346
 22
6836.332430214174
 32
0.0
 13
6123.726938052346
 23
6836.332430214174
 33
0.0
  0
SOLID
  5
19C0B
330
19C04
100
AcDbEntity
  8
标注线
 62
     6
100
AcDbTrace
 10
6050.862562629449
 20
6728.642909859448
 30
0.0
 11
6055.056809900332
 21
6725.921092483007
 31
0.0
 12
6061.125138394212
 22
6739.864742983876
 32
0.0
 13
6061.125138394212
 23
6739.864742983876
 33
0.0
  0
POINT
  5
19C0C
330
19C04
100
AcDbEntity
  8
Defpoints
 62
     0
100
AcDbPoint
 10
6061.125138394212
 20
6739.864742983876
 30
0.0
  0
POINT
  5
19C0D
330
19C04
100
AcDbEntity
  8
Defpoints
 62
     0
100
AcDbPoint
 10
6123.726938052346
 20
6836.332430214174
 30
0.0
  0
ENDBLK
  5
19C0E
330
19C04
100
AcDbEntity
  8
0
100
AcDbBlockEnd
  0
BLOCK
  5
19C34
330
19C0F
100
AcDbEntity
  8
0
100
AcDbBlockBegin
  2
A$C31B1374A
 70
     0
 10
0.0
 20
0.0
 30
0.0
  3
A$C31B1374A
  1

  0
LWPOLYLINE
  5
19C10
102
{ACAD_REACTORS
330
19C1C
330
19C1F
330
19C22
330
19C25
330
19C28
330
19C2B
102
}
330
19C0F
100
AcDbEntity
  8
粗实线
100
AcDbPolyline
 90
        8
 70
     1
 43
0.0
 10
15.00003030819607
 20
501.3997862815585
 10
747.0000303081978
 20
501.3997862815577
 42
-0.4142135623730951
 10
762.0000303081979
 20
486.3997862815576
 10
762.0000303081979
 20
109.9997862815571
 42
-0.4142135623730946
 10
747.0000303081978
 20
94.99978628155714
 10
15.00003030819607
 20
94.99978628155714
 42
-0.4142135623730951
 10
0.0000303081960737
 20
109.9997862815571
 10
0.0000303081960737
 20
486.3997862815586
 42
-0.4142135623730951
  0
REGION
  5
19C11
102
{ACAD_REACTORS
330
19C2E
102
}
330
19C0F
100
AcDbEntity
  8
0
100
AcDbModelerGeometry
 70
     1
  1
koo nn n o          
  1
ni ^ *+0;:,4 ^ *+0\^ [ nh ^ LR iqoqjqhook QK mk Y-6 Y:= mi njejleln mono 
  1
n fqfffffffffffffffj:rooh n:rono 
  1
=0;& {rn {n {rn {rn |
  1
3*2/ {rn {rn {m {o |
  1
,7:33 {rn {rn {rn {l {rn {n |
  1
9><: {rn {rn {k {m {rn {j 90-(>-; ;0*=3: 0*+ |
  1
300/ {rn {rn {i {l |
  1
/3>1:r,*-9><: {rn lgnqoooololognfkmj lgiqlffhgimgnjjjgi o o o n n o o 90-(>-;@) V V V V |
  1
<0:;8: {rn {i {i {rn {h 90-(>-; {k {rn |
  1
:;8: {rn {g {g {i {f 90-(>-; |
  1
):-+:' {rn {h {no |
  1
:336/,:r<*-): {rn lgnqoooololognfkmj lgiqlffhgimgnjjjgi o o o n kj o o n V V |
  1
/061+ {rn kmiqoooololognfkmj lgiqlffhgimgnjjjgi o |
  0
LINE
  5
19C12
330
19C0F
100
AcDbEntity
  8
中心线
100
AcDbLine
 10
381.0000303081943
 20
454.7778074073867
 30
0.0
 11
381.0000303081943
 21
318.0217651557232
 31
0.0
  0
LINE
  5
19C13
102
{ACAD_REACTORS
330
19C28
102
}
330
19C0F
100
AcDbEntity
  8
中心线
100
AcDbLine
 10
312.342473503244
 20
386.3997862815559
 30
0.0
 11
449.6575871131445
 21
386.3997862815559
 31
0.0
  0
CIRCLE
  5
19C14
102
{ACAD_REACTORS
330
19C31
102
}
330
19C0F
100
AcDbEntity
  8
细实线
100
AcDbCircle
 10
381.0000303081943
 20
386.3997862815541
 30
0.0
 40
57.5
  0
CIRCLE
  5
19C15
330
19C0F
100
AcDbEntity
  8
细实线
100
AcDbCircle
 10
381.0000303081943
 20
386.3997862815541
 30
0.0
 40
60.0
  0
LINE
  5
19C16
330
19C0F
100
AcDbEntity
  8
细实线
100
AcDbLine
 10
15.00003030819607
 20
486.3997862815586
 30
0.0
 11
323.1215058991966
 21
402.2135907648872
 31
0.0
  0
LINE
  5
19C17
330
19C0F
100
AcDbEntity
  8
细实线
100
AcDbLine
 10
333.11960251853
 20
350.2409058414914
 30
0.0
 11
15.00003030819607
 21
109.9997862815571
 31
0.0
  0
LINE
  5
19C18
330
19C0F
100
AcDbEntity
  8
细实线
100
AcDbLine
 10
747.0000303081978
 20
486.3997862815576
 30
0.0
 11
438.8785547171919
 21
402.2135907648872
 31
0.0
  0
LINE
  5
19C19
330
19C0F
100
AcDbEntity
  8
细实线
100
AcDbLine
 10
428.8804580978603
 20
350.2409058414932
 30
0.0
 11
747.0000303081978
 21
109.9997862815571
 31
0.0
  0
DIMENSION
  5
19C1A
102
{ACAD_XDICTIONARY
360
19C1B
102
}
102
{ACAD_REACTORS
330
19C1C
102
}
330
19C0F
100
AcDbEntity
  8
标注线
100
AcDbDimension
  2
*D19
 10
762.0000303081979
 20
7.999999024093995
 30
0.0
 11
381.000030308197
 21
20.999999024094
 31
0.0
 12
-5711.426007915084
 22
-6401.69880031747
 32
0.0
 71
     5
 42
762.0000000000018
  3
ISO-25
100
AcDbAlignedDimension
 13
0.0000303081960737
 23
109.9997862815571
 33
0.0
 14
762.0000303081979
 24
109.9997862815571
 34
0.0
100
AcDbRotatedDimension
  0
DIMENSION
  5
19C1D
102
{ACAD_XDICTIONARY
360
19C1E
102
}
102
{ACAD_REACTORS
330
19C1F
102
}
330
19C0F
100
AcDbEntity
  8
标注线
100
AcDbDimension
  2
*D20
 10
787.4000303081975
 20
7.999999024093995
 30
0.0
 11
851.3524112605782
 21
22.90476092885547
 31
0.0
 12
-5711.426007915084
 22
-6401.69880031747
 32
0.0
 71
     5
 42
25.39999999999964
  3
ISO-25
100
AcDbAlignedDimension
 13
762.0000303081979
 23
109.9997862815571
 33
0.0
 14
787.4000303081975
 24
79.5997862815575
 34
0.0
100
AcDbRotatedDimension
  0
DIMENSION
  5
19C20
102
{ACAD_XDICTIONARY
360
19C21
102
}
102
{ACAD_REACTORS
330
19C22
102
}
330
19C0F
100
AcDbEntity
  8
标注线
100
AcDbDimension
  2
*D21
 10
885.5401524258631
 20
94.99978628155622
 30
0.0
 11
870.6353905210999
 21
298.1997862815588
 31
0.0
 12
-5711.426007915084
 22
-6401.698800317472
 32
0.0
 71
     5
 42
406.4000000000014
  3
ISO-25
100
AcDbAlignedDimension
 13
747.0000303081978
 23
501.3997862815577
 33
0.0
 14
747.0000303081978
 24
94.99978628155622
 34
0.0
 50
90.0
100
AcDbRotatedDimension
  0
DIMENSION
  5
19C23
102
{ACAD_XDICTIONARY
360
19C24
102
}
102
{ACAD_REACTORS
330
19C25
102
}
330
19C0F
100
AcDbEntity
  8
标注线
100
AcDbDimension
  2
*D22
 10
885.5401524258631
 20
526.7997862815582
 30
0.0
 11
870.6353905210999
 21
590.7521672339408
 31
0.0
 12
-5711.426007915084
 22
-6401.69880031747
 32
0.0
 71
     5
 42
25.40000000000055
  3
ISO-25
100
AcDbAlignedDimension
 13
747.0000303081978
 23
501.3997862815577
 33
0.0
 14
777.4000303081966
 24
526.7997862815582
 34
0.0
 50
90.0
100
AcDbRotatedDimension
  0
DIMENSION
  5
19C26
102
{ACAD_XDICTIONARY
360
19C27
102
}
102
{ACAD_REACTORS
330
19C28
102
}
330
19C0F
100
AcDbEntity
  8
标注线
100
AcDbDimension
  2
*D23
 10
290.5603619756584
 20
501.3997862815585
 30
0.0
 11
277.5603619756566
 21
443.8997862815576
 31
0.0
 12
-5711.426007915084
 22
-6401.69880031747
 32
0.0
 71
     5
 42
115.0000000000027
  3
ISO-25
100
AcDbAlignedDimension
 13
312.342473503244
 23
386.3997862815559
 33
0.0
 14
312.342473503244
 24
501.3997862815585
 34
0.0
 50
90.0
100
AcDbRotatedDimension
  0
DIMENSION
  5
19C29
102
{ACAD_XDICTIONARY
360
19C2A
102
}
102
{ACAD_REACTORS
330
19C2B
102
}
330
19C0F
100
AcDbEntity
  8
标注线
100
AcDbDimension
  2
*D24
 10
15.00003030819607
 20
109.9997862815571
 30
0.0
 11
43.68979063613642
 21
147.0527952736738
 31
0.0
 12
-5711.426007915084
 22
-6401.698800317466
 32
0.0
 70
   132
 71
     5
 42
14.99999999999636
  3
ISO-25
100
AcDbRadialDimension
 15
5.816719987679789
 25
98.13948225691365
 35
0.0
 40
0.0
1001
ACAD
1000
DSTYLE
1002
{
1070
   279
1070
     1
1070
   288
1070
     1
1002
}
  0
DIMENSION
  5
19C2C
102
{ACAD_XDICTIONARY
360
19C2D
102
}
102
{ACAD_REACTORS
330
19C2E
102
}
330
19C0F
100
AcDbEntity
  8
标注线
100
AcDbDimension
  2
*D25
 10
362.531883855161
 20
427.4354727823221
 30
0.0
 11
435.2240344615137
 21
297.5917816762778
 31
0.0
 12
-5711.426007915084
 22
-6401.698800317473
 32
0.0
 70
     3
 71
     5
 42
90.0
  3
ISO-25
100
AcDbDiametricDimension
 15
399.4681767612282
 25
345.3640997807881
 35
0.0
 40
0.0
1001
ACAD
1000
DSTYLE
1002
{
1070
   288
1070
     1
1002
}
  0
DIMENSION
  5
19C2F
102
{ACAD_XDICTIONARY
360
19C30
102
}
102
{ACAD_REACTORS
330
19C31
102
}
330
19C0F
100
AcDbEntity
  8
标注线
100
AcDbDimension
  2
*D26
 10
412.3009301372615
 20
434.6336298967028
 30
0.0
 11
303.9807472266432
 21
291.5962479899556
 31
0.0
 12
-5711.426007915085
 22
-6401.698800317472
 32
0.0
 70
     3
 71
     5
 42
115.0
  3
ISO-25
100
AcDbDiametricDimension
 15
349.6991304791266
 25
338.1659426664048
 35
0.0
 40
0.0
1001
ACAD
1000
DSTYLE
1002
{
1070
   288
1070
     1
1002
}
  0
ENDBLK
  5
19C35
330
19C0F
100
AcDbEntity
  8
0
100
AcDbBlockEnd
  0
BLOCK
  5
1DD74
330
1DD18
100
AcDbEntity
  8
0
100
AcDbBlockBegin
  2
A$C79957CDD
 70
     0
 10
0.0
 20
0.0
 30
0.0
  3
A$C79957CDD
  1

  0
MTEXT
  5
1DD19
330
1DD18
100
AcDbEntity
  8
虚线
 62
     7
370
    18
100
AcDbMText
 10
1167.847229010176
 20
199.3410269305313
 30
0.0
 40
10.37515362427864
 41
100.7866641013535
 71
     5
 72
     5
  1
{\fSimSun|b0|i0|c134|p2;\H0.9027x;UPDATE SYMBOL}
 73
     1
 44
1.0
1001
ACAD
1000
MTEXTBEGIN
1070
    73
1070
     1
1070
    44
1040
1.0
1070
    74
1070
     0
1000
MTEXTEND
  0
MTEXT
  5
1DD1A
330
1DD18
100
AcDbEntity
  8
虚线
 62
     7
370
    18
100
AcDbMText
 10
1167.847229010176
 20
180.8231713867135
 30
0.0
 40
12.9689420303483
 41
100.7866641013526
 71
     5
 72
     5
  1
{\fSimSun|b0|i0|c134|p54;\H0.7222x;更改   标记}
 73
     1
 44
1.0
1001
ACAD
1000
MTEXTBEGIN
1070
    73
1070
     1
1070
    44
1040
1.0
1070
    74
1070
     0
1000
MTEXTEND
  0
MTEXT
  5
1DD1B
330
1DD18
100
AcDbEntity
  8
虚线
 62
     7
370
    18
100
AcDbMText
 10
1155.747292092512
 20
158.0998047607481
 30
0.0
 40
12.9689420303483
 41
76.58679026602166
 71
     5
 72
     5
  1
{\fSimSun|b0|i0|c134|p2;DWN.}
 73
     1
 44
1.0
1001
ACAD
1000
MTEXTBEGIN
1070
    73
1070
     1
1070
    44
1040
1.0
1070
    74
1070
     0
1000
MTEXTEND
  0
MTEXT
  5
1DD1C
330
1DD18
100
AcDbEntity
  8
虚线
 62
     7
370
    18
100
AcDbMText
 10
1155.747292092512
 20
137.5606995599337
 30
0.0
 40
13.40244807804881
 41
76.58679026602197
 71
     5
 72
     5
  1
{\fSimSun|b0|i0|c134|p54;制 图}
 73
     1
 44
1.0
1001
ACAD
1000
MTEXTBEGIN
1070
    73
1070
     1
1070
    44
1040
1.0
1070
    74
1070
     0
1000
MTEXTEND
  0
MTEXT
  5
1DD1D
330
1DD18
100
AcDbEntity
  8
0
370
    -3
100
AcDbMText
 10
1155.747292092512
 20
89.38611644740559
 30
0.0
 40
13.40244807804881
 41
76.58679026602166
 71
     5
 72
     5
  1
{\fSimSun|b0|i0|c134|p54;\C7;审 核}
 73
     1
 44
1.0
1001
ACAD
1000
MTEXTBEGIN
1070
    73
1070
     1
1070
    44
1040
1.0
1070
    74
1070
     0
1000
MTEXTEND
  0
MTEXT
  5
1DD1E
330
1DD18
100
AcDbEntity
  8
虚线
 62
     7
370
    18
100
AcDbMText
 10
1155.747292092512
 20
48.13718900329695
 30
0.0
 40
13.40244807804881
 41
76.58679026602155
 71
     5
 72
     5
  1
{\fSimSun|b0|i0|c134|p54;批 准}
 73
     1
 44
1.0
1001
ACAD
1000
MTEXTBEGIN
1070
    73
1070
     1
1070
    44
1040
1.0
1070
    74
1070
     0
1000
MTEXTEND
  0
MTEXT
  5
1DD1F
330
1DD18
100
AcDbEntity
  8
虚线
370
    18
100
AcDbMText
 10
1155.747292092512
 20
67.46014783932697
 30
0.0
 40
12.9689420303483
 41
76.58679026602162
 71
     5
 72
     5
  1
{\fSimSun|b0|i0|c134|p2;\C7;APPD.}
 73
     1
 44
1.0
1001
ACAD
1000
MTEXTBEGIN
1070
    73
1070
     1
1070
    44
1040
1.0
1070
    74
1070
     0
1000
MTEXTEND
  0
LINE
  5
1DD20
330
1DD18
100
AcDbEntity
  8
0
370
    -3
100
AcDbLine
 10
1194.040687225521
 20
170.9397079375321
 30
0.0
 11
1194.040687225521
 21
34.64998956563432
 31
0.0
  0
MTEXT
  5
1DD21
330
1DD18
100
AcDbEntity
  8
0
370
    -3
100
AcDbMText
 10
1155.747292092512
 20
111.9908463778629
 30
0.0
 40
12.9689420303483
 41
76.58679026602162
 71
     5
 72
     5
  1
{\fSimSun|b0|i0|c134|p2;\C7;CKD.}
 73
     1
 44
1.0
1001
ACAD
1000
MTEXTBEGIN
1070
    73
1070
     1
1070
    44
1040
1.0
1070
    74
1070
     0
1000
MTEXTEND
  0
LINE
  5
1DD22
330
1DD18
100
AcDbEntity
  8
0
370
    60
100
AcDbLine
 10
1117.453896959499
 20
340.9962572046643
 30
0.0
 11
1117.453896959499
 21
34.64998956563432
 31
0.0
  0
LINE
  5
1DD23
330
1DD18
100
AcDbEntity
  8
0
370
    -3
100
AcDbLine
 10
1218.240561060857
 20
259.2102180786787
 30
0.0
 11
1218.240561060853
 21
170.9397079375139
 31
0.0
  0
LINE
  5
1DD24
330
1DD18
100
AcDbEntity
  8
中心线
370
    -3
100
AcDbLine
 10
1779.614685213799
 20
100.5881256561206
 30
0.0
 11
1649.730397606728
 21
100.5881256561206
 31
0.0
  0
MTEXT
  5
1DD25
330
1DD18
100
AcDbEntity
  8
虚线
 62
     7
370
    18
100
AcDbMText
 10
1541.611068479678
 20
148.4235803451774
 30
0.0
 40
13.86
 41
68.8908333839262
 71
     5
 72
     5
  1
{\fSimSun|b0|i0|c134|p2;1件}
 73
     1
 44
1.0
1001
ACAD
1000
MTEXTBEGIN
1070
    73
1070
     1
1070
    44
1040
1.0
1070
    74
1070
     0
1000
MTEXTEND
  0
MTEXT
  5
1DD26
330
1DD18
100
AcDbEntity
  8
虚线
 62
     7
370
    18
100
AcDbMText
 10
1620.334324491639
 20
159.7351420857321
 30
0.0
 40
12.9689420303483
 41
88.55567863999722
 71
     5
 72
     5
  1
{\fSimSun|b0|i0|c134|p2;MATERIAL}
 73
     1
 44
1.0
1001
ACAD
1000
MTEXTBEGIN
1070
    73
1070
     1
1070
    44
1040
1.0
1070
    74
1070
     0
1000
MTEXTEND
  0
MTEXT
  5
1DD27
330
1DD18
100
AcDbEntity
  8
虚线
 62
     7
370
    18
100
AcDbMText
 10
1620.334324491639
 20
138.3261765053103
 30
0.0
 40
13.40244807804881
 41
88.55567863999722
 71
     5
 72
     5
  1
{\fSimSun|b0|i0|c134|p54;材 料}
 73
     1
 44
1.0
1001
ACAD
1000
MTEXTBEGIN
1070
    73
1070
     1
1070
    44
1040
1.0
1070
    74
1070
     0
1000
MTEXTEND
  0
LINE
  5
1DD28
330
1DD18
100
AcDbEntity
  8
0
370
    -3
100
AcDbLine
 10
1576.056485171641
 20
170.9397079375139
 30
0.0
 11
1576.056485171641
 21
34.64998956563432
 31
0.0
  0
LINE
  5
1DD29
330
1DD18
100
AcDbEntity
  8
0
370
    60
100
AcDbLine
 10
1859.869913593678
 20
1282.690091322551
 30
0.0
 11
1859.869913593678
 21
34.64998956563432
 31
0.0
  0
MTEXT
  5
1DD2A
330
1DD18
100
AcDbEntity
  8
虚线
 62
     7
370
    18
100
AcDbMText
 10
1710.682273684861
 20
291.9990911959885
 30
0.0
 40
10.37515362427864
 41
97.2670652275605
 71
     5
 72
     5
  1
{\fSimSun|b0|i0|c134|p2;MODEL NO.}
 73
     1
 44
1.0
1001
ACAD
1000
MTEXTBEGIN
1070
    73
1070
     1
1070
    44
1040
1.0
1070
    74
1070
     0
1000
MTEXTEND
  0
MTEXT
  5
1DD2B
330
1DD18
100
AcDbEntity
  8
虚线
 62
     7
370
    18
100
AcDbMText
 10
1710.682273684861
 20
273.4077242937965
 30
0.0
 40
13.40244807804881
 41
97.26706522756046
 71
     5
 72
     5
  1
{\fSimSun|b0|i0|c134|p2;型 号}
 73
     1
 44
1.0
1001
ACAD
1000
MTEXTBEGIN
1070
    73
1070
     1
1070
    44
1040
1.0
1070
    74
1070
     0
1000
MTEXTEND
  0
LINE
  5
1DD2C
330
1DD18
100
AcDbEntity
  8
0
370
    -3
100
AcDbLine
 10
1662.048741071079
 20
300.103237641697
 30
0.0
 11
1662.048741071079
 21
259.2102180786787
 31
0.0
  0
LINE
  5
1DD2D
330
1DD18
100
AcDbEntity
  8
0
370
    -3
100
AcDbLine
 10
1759.315806298642
 20
300.103237641697
 30
0.0
 11
1759.315806298642
 21
259.2102180786787
 31
0.0
  0
MTEXT
  5
1DD2E
330
1DD18
100
AcDbEntity
  8
虚线
 62
     7
370
    18
100
AcDbMText
 10
1509.121710601315
 20
312.3488729057626
 30
0.0
 40
13.40244807804881
 41
87.57004387429594
 71
     5
 72
     5
  1
{\fSimSun|b0|i0|c134|p54;描 述}
 73
     1
 44
1.0
1001
ACAD
1000
MTEXTBEGIN
1070
    73
1070
     1
1070
    44
1040
1.0
1070
    74
1070
     0
1000
MTEXTEND
  0
MTEXT
  5
1DD2F
330
1DD18
100
AcDbEntity
  8
虚线
 62
     7
370
    18
100
AcDbMText
 10
1509.121710601319
 20
291.9608356496483
 30
0.0
 40
10.37515362427864
 41
87.57004387429724
 71
     5
 72
     5
  1
{\fSimSun|b0|i0|c134|p2;DWG. NO.}
 73
     1
 44
1.0
1001
ACAD
1000
MTEXTBEGIN
1070
    73
1070
     1
1070
    44
1040
1.0
1070
    74
1070
     0
1000
MTEXTEND
  0
MTEXT
  5
1DD30
330
1DD18
100
AcDbEntity
  8
虚线
 62
     7
370
    18
100
AcDbMText
 10
1509.121710601319
 20
274.5979661936362
 30
0.0
 40
13.40244807804881
 41
87.57004387429994
 71
     5
 72
     5
  1
{\fSimSun|b0|i0|c134|p54;图 号}
 73
     1
 44
1.0
1001
ACAD
1000
MTEXTBEGIN
1070
    73
1070
     1
1070
    44
1040
1.0
1070
    74
1070
     0
1000
MTEXTEND
  0
LINE
  5
1DD31
330
1DD18
100
AcDbEntity
  8
0
370
    -3
100
AcDbLine
 10
1465.336688664169
 20
232.2573450384516
 30
0.0
 11
1117.453896959499
 21
232.2573450384425
 31
0.0
  0
LINE
  5
1DD32
330
1DD18
100
AcDbEntity
  8
0
370
    -3
100
AcDbLine
 10
1465.336688664169
 20
259.2102180786787
 30
0.0
 11
1117.453896959499
 21
259.2102180786787
 31
0.0
  0
LINE
  5
1DD33
330
1DD18
100
AcDbEntity
  8
0
370
    -3
100
AcDbLine
 10
1552.906732538458
 20
340.9962572046643
 30
0.0
 11
1552.906732538473
 21
259.2102180786751
 31
0.0
  0
MTEXT
  5
1DD34
330
1DD18
100
AcDbEntity
  8
虚线
 62
     7
370
    18
100
AcDbMText
 10
1509.121710601315
 20
332.2638700778116
 30
0.0
 40
10.37515362427864
 41
87.57004387429175
 71
     5
 72
     5
  1
{\fSimSun|b0|i0|c134|p2;DESCRIPTION}
 73
     1
 44
1.0
1001
ACAD
1000
MTEXTBEGIN
1070
    73
1070
     1
1070
    44
1040
1.0
1070
    74
1070
     0
1000
MTEXTEND
  0
LINE
  5
1DD35
330
1DD18
100
AcDbEntity
  8
0
370
    -3
100
AcDbLine
 10
1859.869913593678
 20
259.2102180786787
 30
0.0
 11
1465.336688664169
 21
259.2102180786787
 31
0.0
  0
LINE
  5
1DD36
330
1DD18
100
AcDbEntity
  8
0
370
    -3
100
AcDbLine
 10
1859.869913593678
 20
300.1032376416715
 30
0.0
 11
1465.336688664169
 21
300.1032376416715
 31
0.0
  0
LINE
  5
1DD37
330
1DD18
100
AcDbEntity
  8
0
370
    60
100
AcDbLine
 10
1859.869913593678
 20
340.9962572046643
 30
0.0
 11
1117.453896959499
 21
340.9962572046643
 31
0.0
  0
LINE
  5
1DD38
330
1DD18
100
AcDbEntity
  8
0
370
    -3
100
AcDbLine
 10
1716.434025329298
 20
86.5676618059515
 30
0.0
 11
1716.434025329298
 21
114.7038636442266
 31
0.0
  0
CIRCLE
  5
1DD39
330
1DD18
100
AcDbEntity
  8
0
370
    -3
100
AcDbCircle
 10
1761.35124590041
 20
100.5881256561206
 30
0.0
 40
14.02046385016895
  0
CIRCLE
  5
1DD3A
330
1DD18
100
AcDbEntity
  8
0
370
    -3
100
AcDbCircle
 10
1761.35124590041
 20
100.5881256561206
 30
0.0
 40
7.010231925084475
  0
LINE
  5
1DD3B
330
1DD18
100
AcDbEntity
  8
中心线
370
    -3
100
AcDbLine
 10
1761.35124590041
 20
82.32468634273937
 30
0.0
 11
1761.35124590041
 21
118.8515649695
 31
0.0
  0
MTEXT
  5
1DD3C
330
1DD18
100
AcDbEntity
  8
虚线
 62
     7
370
    18
100
AcDbMText
 10
1541.611068479678
 20
100.7255352575521
 30
0.0
 40
13.86
 41
68.8908333839262
 71
     5
 72
     5
  1
{\fSimSun|b0|i0|c134|p2;1:1}
 73
     1
 44
1.0
1001
ACAD
1000
MTEXTBEGIN
1070
    73
1070
     1
1070
    44
1040
1.0
1070
    74
1070
     0
1000
MTEXTEND
  0
LINE
  5
1DD3D
330
1DD18
100
AcDbEntity
  8
0
370
    -3
100
AcDbLine
 10
1655.461683474235
 20
93.57789373103333
 30
0.0
 11
1655.461683474235
 21
107.613917572984
 31
0.0
  0
LINE
  5
1DD3E
330
1DD18
100
AcDbEntity
  8
0
370
    -3
100
AcDbLine
 10
1716.434025329298
 20
86.5676618059515
 30
0.0
 11
1655.461683474235
 21
93.57789373103333
 31
0.0
  0
LINE
  5
1DD3F
330
1DD18
100
AcDbEntity
  8
0
370
    -3
100
AcDbLine
 10
1655.461683474235
 20
107.613917572984
 30
0.0
 11
1716.434025329298
 21
114.7038636442266
 31
0.0
  0
MTEXT
  5
1DD40
330
1DD18
100
AcDbEntity
  8
虚线
 62
     7
370
    18
100
AcDbMText
 10
1732.849869158092
 20
56.92227699951581
 30
0.0
 40
13.40244807804881
 41
25.88593023015731
 71
     1
 72
     5
  1
{\fSimSun|b0|i0|c134|p54;第}
 73
     1
 44
1.0
1001
ACAD
1000
MTEXTBEGIN
1070
    73
1070
     1
1070
    44
1040
1.0
1070
    74
1070
     0
1000
MTEXTEND
  0
MTEXT
  5
1DD41
330
1DD18
100
AcDbEntity
  8
虚线
 62
     7
370
    18
100
AcDbMText
 10
1772.909253857983
 20
53.81781333733306
 30
0.0
 40
13.40244807804881
 41
40.81793527343664
 71
     1
 72
     5
  1
{\fSimSun|b0|i0|c134|p2;(  )}
 73
     1
 44
1.0
1001
ACAD
1000
MTEXTBEGIN
1070
    73
1070
     1
1070
    44
1040
1.0
1070
    74
1070
     0
1000
MTEXTEND
  0
MTEXT
  5
1DD42
330
1DD18
100
AcDbEntity
  8
虚线
 62
     7
370
    18
100
AcDbMText
 10
1822.569784202924
 20
56.53871692574466
 30
0.0
 40
13.40244807804881
 41
37.30012939075567
 71
     1
 72
     5
  1
{\fSimSun|b0|i0|c134|p54;页}
 73
     1
 44
1.0
1001
ACAD
1000
MTEXTBEGIN
1070
    73
1070
     1
1070
    44
1040
1.0
1070
    74
1070
     0
1000
MTEXTEND
  0
MTEXT
  5
1DD43
330
1DD18
100
AcDbEntity
  8
虚线
 62
     7
370
    18
100
AcDbMText
 10
1686.366104920505
 20
56.25675002633579
 30
0.0
 40
13.40244807804881
 41
23.41983335230793
 71
     1
 72
     5
  1
{\fSimSun|b0|i0|c134|p54;页}
 73
     1
 44
1.0
1001
ACAD
1000
MTEXTBEGIN
1070
    73
1070
     1
1070
    44
1040
1.0
1070
    74
1070
     0
1000
MTEXTEND
  0
MTEXT
  5
1DD44
330
1DD18
100
AcDbEntity
  8
虚线
 62
     7
370
    18
100
AcDbMText
 10
1631.481277644407
 20
54.48941071591071
 30
0.0
 40
13.40244807804881
 41
44.26421375328346
 71
     1
 72
     5
  1
{\fSimSun|b0|i0|c134|p2;(  )}
 73
     1
 44
1.0
1001
ACAD
1000
MTEXTBEGIN
1070
    73
1070
     1
1070
    44
1040
1.0
1070
    74
1070
     0
1000
MTEXTEND
  0
MTEXT
  5
1DD45
330
1DD18
100
AcDbEntity
  8
虚线
 62
     7
370
    18
100
AcDbMText
 10
1585.066839793419
 20
56.45045222959016
 30
0.0
 40
13.40244807804881
 41
26.26254123795437
 71
     1
 72
     5
  1
{\fSimSun|b0|i0|c134|p54;共}
 73
     1
 44
1.0
1001
ACAD
1000
MTEXTBEGIN
1070
    73
1070
     1
1070
    44
1040
1.0
1070
    74
1070
     0
1000
MTEXTEND
  0
MTEXT
  5
1DD46
330
1DD18
100
AcDbEntity
  8
虚线
 62
     7
370
    18
100
AcDbMText
 10
1582.28775808992
 20
73.86656849651081
 30
0.0
 40
12.9689420303483
 41
36.33118574990459
 71
     1
 72
     5
  1
{\fSimSun|b0|i0|c134|p2;ALL}
 73
     1
 44
1.0
1001
ACAD
1000
MTEXTBEGIN
1070
    73
1070
     1
1070
    44
1040
1.0
1070
    74
1070
     0
1000
MTEXTEND
  0
MTEXT
  5
1DD47
330
1DD18
100
AcDbEntity
  8
虚线
 62
     7
370
    18
100
AcDbMText
 10
1686.655999308074
 20
73.33495159141421
 30
0.0
 40
12.9689420303483
 41
21.79147238067483
 71
     1
 72
     5
  1
{\fSimSun|b0|i0|c134|p2;PG}
 73
     1
 44
1.0
1001
ACAD
1000
MTEXTBEGIN
1070
    73
1070
     1
1070
    44
1040
1.0
1070
    74
1070
     0
1000
MTEXTEND
  0
MTEXT
  5
1DD48
330
1DD18
100
AcDbEntity
  8
虚线
 62
     7
370
    18
100
AcDbMText
 10
1729.231578709035
 20
73.10598565811233
 30
0.0
 40
12.9689420303483
 41
33.681404708366
 71
     1
 72
     5
  1
{\fSimSun|b0|i0|c134|p2;LSN}
 73
     1
 44
1.0
1001
ACAD
1000
MTEXTBEGIN
1070
    73
1070
     1
1070
    44
1040
1.0
1070
    74
1070
     0
1000
MTEXTEND
  0
MTEXT
  5
1DD49
330
1DD18
100
AcDbEntity
  8
虚线
 62
     7
370
    18
100
AcDbMText
 10
1823.467693995879
 20
73.38095431484544
 30
0.0
 40
12.9689420303483
 41
36.40221959779971
 71
     1
 72
     5
  1
{\fSimSun|b0|i0|c134|p2;PG}
 73
     1
 44
1.0
1001
ACAD
1000
MTEXTBEGIN
1070
    73
1070
     1
1070
    44
1040
1.0
1070
    74
1070
     0
1000
MTEXTEND
  0
LINE
  5
1DD4A
330
1DD18
100
AcDbEntity
  8
0
370
    -3
100
AcDbLine
 10
1664.612163811636
 20
170.9397079375194
 30
0.0
 11
1664.612163811636
 21
123.5622173593474
 31
0.0
  0
MTEXT
  5
1DD4B
330
1DD18
100
AcDbEntity
  8
虚线
 62
     7
370
    18
100
AcDbMText
 10
1420.949364750086
 20
199.0370437798119
 30
0.0
 40
9.365566126829287
 41
88.77464782816797
 71
     5
 72
     5
  1
{\fSimSun|b0|i0|c134|p2;DATE}
 73
     1
 44
1.0
1001
ACAD
1000
MTEXTBEGIN
1070
    73
1070
     1
1070
    44
1040
1.0
1070
    74
1070
     0
1000
MTEXTEND
  0
MTEXT
  5
1DD4C
330
1DD18
100
AcDbEntity
  8
虚线
 62
     7
370
    18
100
AcDbMText
 10
1420.949364750084
 20
180.7336722735017
 30
0.0
 40
9.365566126829287
 41
88.7746478281687
 71
     5
 72
     5
  1
{\fSimSun|b0|i0|c134|p54;日 期}
 73
     1
 44
1.0
1001
ACAD
1000
MTEXTBEGIN
1070
    73
1070
     1
1070
    44
1040
1.0
1070
    74
1070
     0
1000
MTEXTEND
  0
MTEXT
  5
1DD4D
330
1DD18
100
AcDbEntity
  8
虚线
 62
     7
370
    18
100
AcDbMText
 10
1334.867945861382
 20
181.126456491158
 30
0.0
 40
12.9689420303483
 41
83.38818994923576
 71
     5
 72
     5
  1
{\fSimSun|b0|i0|c134|p54;\H0.7222x;签 名}
 73
     1
 44
1.0
1001
ACAD
1000
MTEXTBEGIN
1070
    73
1070
     1
1070
    44
1040
1.0
1070
    74
1070
     0
1000
MTEXTEND
  0
MTEXT
  5
1DD4E
330
1DD18
100
AcDbEntity
  8
虚线
 62
     7
370
    18
100
AcDbMText
 10
1255.707205973807
 20
180.9359667869648
 30
0.0
 40
12.9689420303483
 41
74.93328982591005
 71
     5
 72
     5
  1
{\fSimSun|b0|i0|c134|p54;\H0.7222x;处 数}
 73
     1
 44
1.0
1001
ACAD
1000
MTEXTBEGIN
1070
    73
1070
     1
1070
    44
1040
1.0
1070
    74
1070
     0
1000
MTEXTEND
  0
MTEXT
  5
1DD4F
330
1DD18
100
AcDbEntity
  8
虚线
 62
     7
370
    18
100
AcDbMText
 10
1334.867945861382
 20
198.3780803939007
 30
0.0
 40
10.37515362427864
 41
83.38818994923364
 71
     5
 72
     5
  1
{\fSimSun|b0|i0|c134|p2;\H0.9027x;AUTOGRAPH}
 73
     1
 44
1.0
1001
ACAD
1000
MTEXTBEGIN
1070
    73
1070
     1
1070
    44
1040
1.0
1070
    74
1070
     0
1000
MTEXTEND
  0
MTEXT
  5
1DD50
330
1DD18
100
AcDbEntity
  8
虚线
 62
     7
370
    18
100
AcDbMText
 10
1470.039992687996
 20
158.6639102710178
 30
0.0
 40
12.9689420303483
 41
74.25131819943986
 71
     5
 72
     5
  1
{\fSimSun|b0|i0|c134|p2;NUMBER}
 73
     1
 44
1.0
1001
ACAD
1000
MTEXTBEGIN
1070
    73
1070
     1
1070
    44
1040
1.0
1070
    74
1070
     0
1000
MTEXTEND
  0
MTEXT
  5
1DD51
330
1DD18
100
AcDbEntity
  8
虚线
 62
     7
370
    18
100
AcDbMText
 10
1469.820761301214
 20
138.3128810720354
 30
0.0
 40
13.40244807804881
 41
74.25131819943986
 71
     5
 72
     5
  1
{\fSimSun|b0|i0|c134|p54;数 量}
 73
     1
 44
1.0
1001
ACAD
1000
MTEXTBEGIN
1070
    73
1070
     1
1070
    44
1040
1.0
1070
    74
1070
     0
1000
MTEXTEND
  0
LINE
  5
1DD52
330
1DD18
100
AcDbEntity
  8
0
370
    -3
100
AcDbLine
 10
1465.336688664169
 20
206.6042985209751
 30
0.0
 11
1117.453896959499
 21
206.6042985209751
 31
0.0
  0
MTEXT
  5
1DD53
330
1DD18
100
AcDbEntity
  8
虚线
 62
     7
370
    18
100
AcDbMText
 10
1255.707205973811
 20
198.3780803938989
 30
0.0
 40
10.37515362427864
 41
74.933289825913
 71
     5
 72
     5
  1
{\fSimSun|b0|i0|c134|p2;\H0.9027x;POSITION}
 73
     1
 44
1.0
1001
ACAD
1000
MTEXTBEGIN
1070
    73
1070
     1
1070
    44
1040
1.0
1070
    74
1070
     0
1000
MTEXTEND
  0
MTEXT
  5
1DD54
330
1DD18
100
AcDbEntity
  8
虚线
 62
     7
370
    18
100
AcDbMText
 10
1470.039992687996
 20
90.63799984973957
 30
0.0
 40
13.40244807804881
 41
74.25131819944003
 71
     5
 72
     5
  1
{\fSimSun|b0|i0|c134|p54;比 例}
 73
     1
 44
1.0
1001
ACAD
1000
MTEXTBEGIN
1070
    73
1070
     1
1070
    44
1040
1.0
1070
    74
1070
     0
1000
MTEXTEND
  0
MTEXT
  5
1DD55
330
1DD18
100
AcDbEntity
  8
虚线
 62
     7
370
    18
100
AcDbMText
 10
1469.963875991636
 20
46.93765552828518
 30
0.0
 40
13.40244807804881
 41
74.20060909524568
 71
     5
 72
     5
  1
{\fSimSun|b0|i0|c134|p54;版 次}
 73
     1
 44
1.0
1001
ACAD
1000
MTEXTBEGIN
1070
    73
1070
     1
1070
    44
1040
1.0
1070
    74
1070
     0
1000
MTEXTEND
  0
LINE
  5
1DD56
330
1DD18
100
AcDbEntity
  8
0
370
    -3
100
AcDbLine
 10
1507.165651787714
 20
170.9397079375139
 30
0.0
 11
1507.165651787714
 21
34.64998956563432
 31
0.0
  0
MTEXT
  5
1DD57
330
1DD18
100
AcDbEntity
  8
虚线
 62
     7
370
    18
100
AcDbMText
 10
1470.039992687996
 20
65.04703630240147
 30
0.0
 40
12.9689420303483
 41
74.25131819944026
 71
     5
 72
     5
  1
{\fSimSun|b0|i0|c134|p2;REV.} 
 73
     1
 44
1.0
1001
ACAD
1000
MTEXTBEGIN
1070
    73
1070
     1
1070
    44
1040
1.0
1070
    74
1070
     0
1000
MTEXTEND
  0
LINE
  5
1DD58
330
1DD18
100
AcDbEntity
  8
0
370
    -3
100
AcDbLine
 10
1432.914333588274
 20
170.9397079375139
 30
0.0
 11
1432.914333588274
 21
34.64998956563432
 31
0.0
  0
LINE
  5
1DD59
330
1DD18
100
AcDbEntity
  8
0
370
    -3
100
AcDbLine
 10
1309.595168908092
 20
170.9397079375139
 30
0.0
 11
1309.595168908076
 21
34.64998956563432
 31
0.0
  0
MTEXT
  5
1DD5A
330
1DD18
100
AcDbEntity
  8
虚线
 62
     7
370
    18
100
AcDbMText
 10
1470.039992687996
 20
111.0690609968042
 30
0.0
 40
12.9689420303483
 41
74.25131819943953
 71
     5
 72
     5
  1
{\fSimSun|b0|i0|c134|p2;SCALE}
 73
     1
 44
1.0
1001
ACAD
1000
MTEXTBEGIN
1070
    73
1070
     1
1070
    44
1040
1.0
1070
    74
1070
     0
1000
MTEXTEND
  0
LINE
  5
1DD5B
330
1DD18
100
AcDbEntity
  8
0
370
    -3
100
AcDbLine
 10
1859.869913593678
 20
76.18472678117541
 30
0.0
 11
1117.453896959499
 21
76.18472678117541
 31
0.0
  0
LINE
  5
1DD5C
330
1DD18
100
AcDbEntity
  8
0
370
    -3
100
AcDbLine
 10
1859.869913593678
 20
123.5622173593474
 30
0.0
 11
1117.453896959499
 21
123.5622173593474
 31
0.0
  0
MTEXT
  5
1DD5D
330
1DD18
100
AcDbEntity
  8
虚线
 62
     7
370
    18
100
AcDbMText
 10
1541.611068479678
 20
56.4415593425474
 30
0.0
 40
13.86
 41
68.8908333839262
 71
     5
 72
     5
  1
{\fSimSun|b0|i0|c134|p2;A/0}
 73
     1
 44
1.0
1001
ACAD
1000
MTEXTBEGIN
1070
    73
1070
     1
1070
    44
1040
1.0
1070
    74
1070
     0
1000
MTEXTEND
  0
LINE
  5
1DD5E
330
1DD18
100
AcDbEntity
  8
0
370
    -3
100
AcDbLine
 10
1859.869913593678
 20
170.9397079375139
 30
0.0
 11
1117.453896959499
 21
170.9397079375139
 31
0.0
  0
LINE
  5
1DD5F
330
1DD18
100
AcDbEntity
  8
0
370
    -3
100
AcDbLine
 10
1465.336688664169
 20
340.9962572046643
 30
0.0
 11
1465.336688664169
 21
170.9397079375139
 31
0.0
  0
LINE
  5
1DD60
330
1DD18
100
AcDbEntity
  8
0
370
    -3
100
AcDbLine
 10
1376.562040836003
 20
259.2102180786787
 30
0.0
 11
1376.562040835999
 21
170.9397079375139
 31
0.0
  0
LINE
  5
1DD61
330
1DD18
100
AcDbEntity
  8
0
370
    -3
100
AcDbLine
 10
1293.173850886776
 20
259.2102180786787
 30
0.0
 11
1293.173850886762
 21
170.9397079375139
 31
0.0
  0
LINE
  5
1DD62
330
1DD18
100
AcDbEntity
  8
0
370
    60
100
AcDbLine
 10
86.62502337896148
 20
34.64998956563432
 30
0.0
 11
1859.869913593678
 21
34.64998956563432
 31
0.0
  0
MTEXT
  5
1DD63
330
1DD18
100
AcDbEntity
  8
标注线
  6
Continuous
100
AcDbMText
 10
1662.603301128924
 20
216.4745625043179
 30
0.0
 40
15.0
 41
394.5332249295102
 71
     5
 72
     5
  1
{\C7;KSSX-4830R(HA104-R15)\fSimSun|b0|i0|c134|p54;产品图}
 73
     1
 44
1.0
1001
ACAD
1000
ACAD_MTEXT_DEFINED_HEIGHT_BEGIN
1070
    46
1040
0.0
1000
ACAD_MTEXT_DEFINED_HEIGHT_END
1000
MTEXTBEGIN
1070
    73
1070
     1
1070
    44
1040
1.0
1070
    74
1070
     0
1000
MTEXTEND
  0
LINE
  5
1DD64
330
1DD18
100
AcDbEntity
  8
0
370
    60
100
AcDbLine
 10
1894.519913593678
 20
1317.34009132255
 30
0.0
 11
1894.519913593665
 21
-0.000010434363503
 31
0.0
  0
LINE
  5
1DD65
330
1DD18
100
AcDbEntity
  8
0
370
    60
100
AcDbLine
 10
0.0000233789578488
 20
-0.000010434363503
 30
0.0
 11
1894.519913593665
 21
-0.000010434363503
 31
0.0
  0
MTEXT
  5
1DD66
330
1DD18
100
AcDbEntity
  8
虚线
 62
     7
370
    18
100
AcDbMText
 10
1762.241038702659
 20
148.2466390432309
 30
0.0
 40
16.63199999999999
 41
195.2577497820416
 71
     5
 72
     5
  1
{\fSimSun|b0|i0|c134|p2;T=1.2mm  SUS304}
 73
     1
 44
1.0
1001
ACAD
1000
MTEXTBEGIN
1070
    73
1070
     1
1070
    44
1040
1.0
1070
    74
1070
     0
1000
MTEXTEND
  0
MTEXT
  5
1DD67
330
1DD18
100
AcDbEntity
  8
标注线
  6
Continuous
 62
     7
100
AcDbMText
 10
1291.395292811836
 20
311.6539931193947
 30
0.0
 40
23.95008000000001
 41
347.8827917046697
 71
     5
 72
     5
  1
{\fKaiTi_GB2312|b0|i0|c134|p49;东原厨具实业有限公司}
 73
     1
 44
1.0
1001
ACAD
1000
MTEXTBEGIN
1070
    73
1070
     1
1070
    44
1040
1.0
1070
    74
1070
     0
1000
MTEXTEND
  0
MTEXT
  5
1DD68
330
1DD18
100
AcDbEntity
  8
虚线
 62
     7
370
    18
100
AcDbMText
 10
1291.395292811836
 20
276.3174550039257
 30
0.0
 40
12.1968
 41
347.8827917046701
 71
     5
 72
     5
  1
{\fSimSun|b0|i0|c134|p2;DONGYUAN KITCHENWARE INDUSTRIAL CO.,LTD}
 73
     1
 44
1.0
1001
ACAD
1000
MTEXTBEGIN
1070
    73
1070
     1
1070
    44
1040
1.0
1070
    74
1070
     0
1000
MTEXTEND
  0
MTEXT
  5
1DD69
330
1DD18
100
AcDbEntity
  8
虚线
 62
     7
370
    18
100
AcDbMText
 10
1251.817928066806
 20
146.6717881499462
 30
0.0
 40
18.48
 41
115.5544816825673
 71
     5
 72
     5
  1
{\fSimSun|b0|i0|c134|p2;谢海帆}
 73
     1
 44
1.0
1001
ACAD
1000
MTEXTBEGIN
1070
    73
1070
     1
1070
    44
1040
1.0
1070
    74
1070
     0
1000
MTEXTEND
  0
MTEXT
  5
1DD6A
330
1DD18
100
AcDbEntity
  8
虚线
 62
     7
370
    18
100
AcDbMText
 10
1371.254751248181
 20
145.3546508551335
 30
0.0
 40
13.86
 41
123.3191646801861
 71
     5
 72
     5
  1
{\fSimSun|b0|i0|c134|p2;2008.12.17}
 73
     1
 44
1.0
1001
ACAD
1000
ACAD_MTEXT_DEFINED_HEIGHT_BEGIN
1070
    46
1040
0.0
1000
ACAD_MTEXT_DEFINED_HEIGHT_END
1000
MTEXTBEGIN
1070
    73
1070
     1
1070
    44
1040
1.0
1070
    74
1070
     0
1000
MTEXTEND
  0
MTEXT
  5
1DD6B
330
1DD18
100
AcDbEntity
  8
虚线
 62
     7
370
    18
100
AcDbMText
 10
1643.979656077614
 20
52.79810860333236
 30
0.0
 40
13.40244807804881
 41
9.056188835122439
 71
     1
 72
     5
  1
{\fSimSun|b0|i0|c134|p2;2}
 73
     1
 44
1.0
1001
ACAD
1000
ACAD_MTEXT_DEFINED_HEIGHT_BEGIN
1070
    46
1040
0.0
1000
ACAD_MTEXT_DEFINED_HEIGHT_END
1000
MTEXTBEGIN
1070
    73
1070
     1
1070
    44
1040
1.0
1070
    74
1070
     0
1000
MTEXTEND
  0
MTEXT
  5
1DD6C
330
1DD18
100
AcDbEntity
  8
虚线
 62
     7
370
    18
100
AcDbMText
 10
1785.045965202766
 20
52.30675751830858
 30
0.0
 40
13.40244807804881
 41
10.21006116495092
 71
     1
 72
     5
  1
{\fSimSun|b0|i0|c134|p2;1}
 73
     1
 44
1.0
1001
ACAD
1000
MTEXTBEGIN
1070
    73
1070
     1
1070
    44
1040
1.0
1070
    74
1070
     0
1000
MTEXTEND
  0
LINE
  5
1DD6D
330
1DD18
100
AcDbEntity
  8
0
370
    60
100
AcDbLine
 10
1859.869913593678
 20
1282.690091322551
 30
0.0
 11
86.62502337896148
 21
1282.690091322551
 31
0.0
  0
LINE
  5
1DD6E
330
1DD18
100
AcDbEntity
  8
0
370
    60
100
AcDbLine
 10
86.62502337896148
 20
34.64998956563432
 30
0.0
 11
86.62502337896148
 21
1282.690091322551
 31
0.0
  0
LINE
  5
1DD6F
330
1DD18
100
AcDbEntity
  8
0
370
    60
100
AcDbLine
 10
1894.519913593678
 20
1317.34009132255
 30
0.0
 11
0.0000233789578488
 21
1317.340091322549
 31
0.0
  0
LINE
  5
1DD70
330
1DD18
100
AcDbEntity
  8
0
370
    60
100
AcDbLine
 10
0.0000233789578488
 20
-0.000010434363503
 30
0.0
 11
0.0000233789578488
 21
1317.340091322549
 31
0.0
  0
MTEXT
  5
1DD71
330
1DD18
100
AcDbEntity
  8
虚线
 62
     7
370
    18
100
AcDbMText
 10
1706.38832306607
 20
322.0630185924711
 30
0.0
 40
15.36
 41
306.9631810552159
 71
     5
 72
     5
  1
{\fSimSun|b0|i0|c134|p2;圆角R15手工单盆}
 73
     1
 44
1.0
1001
ACAD
1000
ACAD_MTEXT_DEFINED_HEIGHT_BEGIN
1070
    46
1040
20.22399999999779
1000
ACAD_MTEXT_DEFINED_HEIGHT_END
1000
MTEXTBEGIN
1070
    73
1070
     1
1070
    44
1040
1.0
1070
    74
1070
     0
1000
MTEXTEND
  0
ENDBLK
  5
1DD75
330
1DD18
100
AcDbEntity
  8
0
100
AcDbBlockEnd
  0
BLOCK
  5
1E15D
330
1E101
100
AcDbEntity
  8
0
100
AcDbBlockBegin
  2
A$C56390592
 70
     0
 10
0.0
 20
0.0
 30
0.0
  3
A$C56390592
  1

  0
MTEXT
  5
1E102
330
1E101
100
AcDbEntity
  8
虚线
 62
     7
370
    18
100
AcDbMText
 10
1518.201391665545
 20
259.1433604646955
 30
0.0
 40
13.48769971156224
 41
131.0226633317596
 71
     5
 72
     5
  1
{\fSimSun|b0|i0|c134|p2;\H0.9027x;UPDATE SYMBOL}
 73
     1
 44
1.0
1001
ACAD
1000
MTEXTBEGIN
1070
    73
1070
     1
1070
    44
1040
1.0
1070
    74
1070
     0
1000
MTEXTEND
  0
MTEXT
  5
1E103
330
1E101
100
AcDbEntity
  8
虚线
 62
     7
370
    18
100
AcDbMText
 10
1518.201391665545
 20
235.0701482577333
 30
0.0
 40
16.85962463945279
 41
131.0226633317584
 71
     5
 72
     5
  1
{\fSimSun|b0|i0|c134|p54;\H0.7222x;更改   标记}
 73
     1
 44
1.0
1001
ACAD
1000
MTEXTBEGIN
1070
    73
1070
     1
1070
    44
1040
1.0
1070
    74
1070
     0
1000
MTEXTEND
  0
MTEXT
  5
1E104
330
1E101
100
AcDbEntity
  8
虚线
 62
     7
370
    18
100
AcDbMText
 10
1502.471473672582
 20
205.5297716439782
 30
0.0
 40
16.85962463945279
 41
99.56282734582817
 71
     5
 72
     5
  1
{\fSimSun|b0|i0|c134|p2;DWN.}
 73
     1
 44
1.0
1001
ACAD
1000
MTEXTBEGIN
1070
    73
1070
     1
1070
    44
1040
1.0
1070
    74
1070
     0
1000
MTEXTEND
  0
MTEXT
  5
1E105
330
1E101
100
AcDbEntity
  8
虚线
 62
     7
370
    18
100
AcDbMText
 10
1502.471473672582
 20
178.8289348829185
 30
0.0
 40
17.42318250146345
 41
99.56282734582856
 71
     5
 72
     5
  1
{\fSimSun|b0|i0|c134|p54;制 图}
 73
     1
 44
1.0
1001
ACAD
1000
MTEXTBEGIN
1070
    73
1070
     1
1070
    44
1040
1.0
1070
    74
1070
     0
1000
MTEXTEND
  0
MTEXT
  5
1E106
330
1E101
100
AcDbEntity
  8
0
370
    -3
100
AcDbMText
 10
1502.471473672582
 20
116.2019768366317
 30
0.0
 40
17.42318250146345
 41
99.56282734582817
 71
     5
 72
     5
  1
{\fSimSun|b0|i0|c134|p54;\C7;审 核}
 73
     1
 44
1.0
1001
ACAD
1000
MTEXTBEGIN
1070
    73
1070
     1
1070
    44
1040
1.0
1070
    74
1070
     0
1000
MTEXTEND
  0
MTEXT
  5
1E107
330
1E101
100
AcDbEntity
  8
虚线
 62
     7
370
    18
100
AcDbMText
 10
1502.471473672582
 20
62.57837115929032
 30
0.0
 40
17.42318250146345
 41
99.56282734582803
 71
     5
 72
     5
  1
{\fSimSun|b0|i0|c134|p54;批 准}
 73
     1
 44
1.0
1001
ACAD
1000
MTEXTBEGIN
1070
    73
1070
     1
1070
    44
1040
1.0
1070
    74
1070
     0
1000
MTEXTEND
  0
MTEXT
  5
1E108
330
1E101
100
AcDbEntity
  8
虚线
370
    18
100
AcDbMText
 10
1502.471473672582
 20
87.6982176461297
 30
0.0
 40
16.85962463945279
 41
99.56282734582812
 71
     5
 72
     5
  1
{\fSimSun|b0|i0|c134|p2;\C7;APPD.}
 73
     1
 44
1.0
1001
ACAD
1000
MTEXTBEGIN
1070
    73
1070
     1
1070
    44
1040
1.0
1070
    74
1070
     0
1000
MTEXTEND
  0
LINE
  5
1E109
330
1E101
100
AcDbEntity
  8
0
370
    -3
100
AcDbLine
 10
1552.252887345492
 20
222.2216457737977
 30
0.0
 11
1552.252887345492
 21
45.04501189032999
 31
0.0
  0
MTEXT
  5
1E10A
330
1E101
100
AcDbEntity
  8
0
370
    -3
100
AcDbMText
 10
1502.471473672582
 20
145.5881257462261
 30
0.0
 40
16.85962463945279
 41
99.56282734582812
 71
     5
 72
     5
  1
{\fSimSun|b0|i0|c134|p2;\C7;CKD.}
 73
     1
 44
1.0
1001
ACAD
1000
MTEXTBEGIN
1070
    73
1070
     1
1070
    44
1040
1.0
1070
    74
1070
     0
1000
MTEXTEND
  0
LINE
  5
1E10B
330
1E101
100
AcDbEntity
  8
0
370
    60
100
AcDbLine
 10
1452.690059999666
 20
443.2951598210693
 30
0.0
 11
1452.690059999666
 21
45.04501189032999
 31
0.0
  0
LINE
  5
1E10C
330
1E101
100
AcDbEntity
  8
0
370
    -3
100
AcDbLine
 10
1583.712723331429
 20
336.9733089572874
 30
0.0
 11
1583.712723331424
 21
222.2216457737741
 31
0.0
  0
LINE
  5
1E10D
330
1E101
100
AcDbEntity
  8
中心线
370
    -3
100
AcDbLine
 10
2313.499084730256
 20
130.7645888079623
 30
0.0
 11
2144.649510841062
 21
130.7645888079623
 31
0.0
  0
MTEXT
  5
1E10E
330
1E101
100
AcDbEntity
  8
虚线
 62
     7
370
    18
100
AcDbMText
 10
2004.0943829759
 20
192.9506799037353
 30
0.0
 40
18.018
 41
89.55808339910408
 71
     5
 72
     5
  1
{\fSimSun|b0|i0|c134|p2;1件}
 73
     1
 44
1.0
1001
ACAD
1000
MTEXTBEGIN
1070
    73
1070
     1
1070
    44
1040
1.0
1070
    74
1070
     0
1000
MTEXTEND
  0
MTEXT
  5
1E10F
330
1E101
100
AcDbEntity
  8
虚线
 62
     7
370
    18
100
AcDbMText
 10
2106.434615791446
 20
207.6557101664566
 30
0.0
 40
16.85962463945278
 41
115.1223822319964
 71
     5
 72
     5
  1
{\fSimSun|b0|i0|c134|p2;MATERIAL}
 73
     1
 44
1.0
1001
ACAD
1000
MTEXTBEGIN
1070
    73
1070
     1
1070
    44
1040
1.0
1070
    74
1070
     0
1000
MTEXTEND
  0
MTEXT
  5
1E110
330
1E101
100
AcDbEntity
  8
虚线
 62
     7
370
    18
100
AcDbMText
 10
2106.434615791446
 20
179.8240549119091
 30
0.0
 40
17.42318250146345
 41
115.1223822319964
 71
     5
 72
     5
  1
{\fSimSun|b0|i0|c134|p54;材 料}
 73
     1
 44
1.0
1001
ACAD
1000
MTEXTBEGIN
1070
    73
1070
     1
1070
    44
1040
1.0
1070
    74
1070
     0
1000
MTEXTEND
  0
LINE
  5
1E111
330
1E101
100
AcDbEntity
  8
0
370
    -3
100
AcDbLine
 10
2048.873424675448
 20
222.2216457737741
 30
0.0
 11
2048.873424675448
 21
45.04501189032999
 31
0.0
  0
LINE
  5
1E112
330
1E101
100
AcDbEntity
  8
0
370
    60
100
AcDbLine
 10
2417.830881624099
 20
1667.497144174322
 30
0.0
 11
2417.830881624099
 21
45.04501189032999
 31
0.0
  0
MTEXT
  5
1E113
330
1E101
100
AcDbEntity
  8
虚线
 62
     7
370
    18
100
AcDbMText
 10
2223.886949742637
 20
379.5988440097899
 30
0.0
 40
13.48769971156224
 41
126.4471847958286
 71
     5
 72
     5
  1
{\fSimSun|b0|i0|c134|p2;MODEL NO.}
 73
     1
 44
1.0
1001
ACAD
1000
MTEXTBEGIN
1070
    73
1070
     1
1070
    44
1040
1.0
1070
    74
1070
     0
1000
MTEXTEND
  0
MTEXT
  5
1E114
330
1E101
100
AcDbEntity
  8
虚线
 62
     7
370
    18
100
AcDbMText
 10
2223.886949742637
 20
355.4300670369412
 30
0.0
 40
17.42318250146345
 41
126.4471847958286
 71
     5
 72
     5
  1
{\fSimSun|b0|i0|c134|p2;型 号}
 73
     1
 44
1.0
1001
ACAD
1000
MTEXTBEGIN
1070
    73
1070
     1
1070
    44
1040
1.0
1070
    74
1070
     0
1000
MTEXTEND
  0
LINE
  5
1E115
330
1E101
100
AcDbEntity
  8
0
370
    -3
100
AcDbLine
 10
2160.66335734472
 20
390.134234389212
 30
0.0
 11
2160.66335734472
 21
336.9733089572874
 31
0.0
  0
LINE
  5
1E116
330
1E101
100
AcDbEntity
  8
0
370
    -3
100
AcDbLine
 10
2287.11054214055
 20
390.134234389212
 30
0.0
 11
2287.11054214055
 21
336.9733089572874
 31
0.0
  0
MTEXT
  5
1E117
330
1E101
100
AcDbEntity
  8
虚线
 62
     7
370
    18
100
AcDbMText
 10
1961.858217734027
 20
406.0535602324962
 30
0.0
 40
17.42318250146345
 41
113.8410570365847
 71
     5
 72
     5
  1
{\fSimSun|b0|i0|c134|p54;描 述}
 73
     1
 44
1.0
1001
ACAD
1000
MTEXTBEGIN
1070
    73
1070
     1
1070
    44
1040
1.0
1070
    74
1070
     0
1000
MTEXTEND
  0
MTEXT
  5
1E118
330
1E101
100
AcDbEntity
  8
虚线
 62
     7
370
    18
100
AcDbMText
 10
1961.85821773403
 20
379.549111799548
 30
0.0
 40
13.48769971156224
 41
113.8410570365864
 71
     5
 72
     5
  1
{\fSimSun|b0|i0|c134|p2;DWG. NO.}
 73
     1
 44
1.0
1001
ACAD
1000
MTEXTBEGIN
1070
    73
1070
     1
1070
    44
1040
1.0
1070
    74
1070
     0
1000
MTEXTEND
  0
MTEXT
  5
1E119
330
1E101
100
AcDbEntity
  8
虚线
 62
     7
370
    18
100
AcDbMText
 10
1961.85821773403
 20
356.9773815067329
 30
0.0
 40
17.42318250146345
 41
113.8410570365899
 71
     5
 72
     5
  1
{\fSimSun|b0|i0|c134|p54;图 号}
 73
     1
 44
1.0
1001
ACAD
1000
MTEXTBEGIN
1070
    73
1070
     1
1070
    44
1040
1.0
1070
    74
1070
     0
1000
MTEXTEND
  0
LINE
  5
1E11A
330
1E101
100
AcDbEntity
  8
0
370
    -3
100
AcDbLine
 10
1904.937689215736
 20
301.9345740049921
 30
0.0
 11
1452.690059999666
 21
301.9345740049812
 31
0.0
  0
LINE
  5
1E11B
330
1E101
100
AcDbEntity
  8
0
370
    -3
100
AcDbLine
 10
1904.937689215736
 20
336.9733089572874
 30
0.0
 11
1452.690059999666
 21
336.9733089572874
 31
0.0
  0
LINE
  5
1E11C
330
1E101
100
AcDbEntity
  8
0
370
    -3
100
AcDbLine
 10
2018.778746252314
 20
443.2951598210693
 30
0.0
 11
2018.778746252332
 21
336.9733089572819
 31
0.0
  0
MTEXT
  5
1E11D
330
1E101
100
AcDbEntity
  8
虚线
 62
     7
370
    18
100
AcDbMText
 10
1961.858217734027
 20
431.9430565561597
 30
0.0
 40
13.48769971156224
 41
113.8410570365792
 71
     5
 72
     5
  1
{\fSimSun|b0|i0|c134|p2;DESCRIPTION}
 73
     1
 44
1.0
1001
ACAD
1000
MTEXTBEGIN
1070
    73
1070
     1
1070
    44
1040
1.0
1070
    74
1070
     0
1000
MTEXTEND
  0
LINE
  5
1E11E
330
1E101
100
AcDbEntity
  8
0
370
    -3
100
AcDbLine
 10
2417.830881624099
 20
336.9733089572874
 30
0.0
 11
1904.937689215736
 21
336.9733089572874
 31
0.0
  0
LINE
  5
1E11F
330
1E101
100
AcDbEntity
  8
0
370
    -3
100
AcDbLine
 10
2417.830881624099
 20
390.1342343891774
 30
0.0
 11
1904.937689215736
 21
390.1342343891774
 31
0.0
  0
LINE
  5
1E120
330
1E101
100
AcDbEntity
  8
0
370
    60
100
AcDbLine
 10
2417.830881624099
 20
443.2951598210693
 30
0.0
 11
1452.690059999666
 21
443.2951598210693
 31
0.0
  0
LINE
  5
1E121
330
1E101
100
AcDbEntity
  8
0
370
    -3
100
AcDbLine
 10
2231.364226880401
 20
112.5379858027427
 30
0.0
 11
2231.364226880401
 21
149.1150481924996
 31
0.0
  0
CIRCLE
  5
1E122
330
1E101
100
AcDbEntity
  8
0
370
    -3
100
AcDbCircle
 10
2289.75661362285
 20
130.7645888079623
 30
0.0
 40
18.22660300521963
  0
CIRCLE
  5
1E123
330
1E101
100
AcDbEntity
  8
0
370
    -3
100
AcDbCircle
 10
2289.75661362285
 20
130.7645888079623
 30
0.0
 40
9.113301502609818
  0
LINE
  5
1E124
330
1E101
100
AcDbEntity
  8
中心线
370
    -3
100
AcDbLine
 10
2289.75661362285
 20
107.022117700566
 30
0.0
 11
2289.75661362285
 21
154.507059915355
 31
0.0
  0
MTEXT
  5
1E125
330
1E101
100
AcDbEntity
  8
虚线
 62
     7
370
    18
100
AcDbMText
 10
2004.0943829759
 20
130.9432212898227
 30
0.0
 40
18.018
 41
89.55808339910408
 71
     5
 72
     5
  1
{\fSimSun|b0|i0|c134|p2;1:1}
 73
     1
 44
1.0
1001
ACAD
1000
MTEXTBEGIN
1070
    73
1070
     1
1070
    44
1040
1.0
1070
    74
1070
     0
1000
MTEXTEND
  0
LINE
  5
1E126
330
1E101
100
AcDbEntity
  8
0
370
    -3
100
AcDbLine
 10
2152.100182468823
 20
121.6512873053489
 30
0.0
 11
2152.100182468823
 21
139.898118299885
 31
0.0
  0
LINE
  5
1E127
330
1E101
100
AcDbEntity
  8
0
370
    -3
100
AcDbLine
 10
2231.364226880401
 20
112.5379858027427
 30
0.0
 11
2152.100182468823
 21
121.6512873053489
 31
0.0
  0
LINE
  5
1E128
330
1E101
100
AcDbEntity
  8
0
370
    -3
100
AcDbLine
 10
2152.100182468823
 20
139.898118299885
 30
0.0
 11
2231.364226880401
 21
149.1150481924996
 31
0.0
  0
MTEXT
  5
1E129
330
1E101
100
AcDbEntity
  8
虚线
 62
     7
370
    18
100
AcDbMText
 10
2252.704823857834
 20
73.99898555437539
 30
0.0
 40
17.42318250146345
 41
33.65170929920451
 71
     1
 72
     5
  1
{\fSimSun|b0|i0|c134|p54;第}
 73
     1
 44
1.0
1001
ACAD
1000
MTEXTBEGIN
1070
    73
1070
     1
1070
    44
1040
1.0
1070
    74
1070
     0
1000
MTEXTEND
  0
MTEXT
  5
1E12A
330
1E101
100
AcDbEntity
  8
虚线
 62
     7
370
    18
100
AcDbMText
 10
2304.782023967693
 20
69.96318279353727
 30
0.0
 40
17.42318250146345
 41
53.06331585546764
 71
     1
 72
     5
  1
{\fSimSun|b0|i0|c134|p2;(  )}
 73
     1
 44
1.0
1001
ACAD
1000
MTEXTBEGIN
1070
    73
1070
     1
1070
    44
1040
1.0
1070
    74
1070
     0
1000
MTEXTEND
  0
MTEXT
  5
1E12B
330
1E101
100
AcDbEntity
  8
虚线
 62
     7
370
    18
100
AcDbMText
 10
2369.340713416119
 20
73.50035745847344
 30
0.0
 40
17.42318250146345
 41
48.49016820798237
 71
     1
 72
     5
  1
{\fSimSun|b0|i0|c134|p54;页}
 73
     1
 44
1.0
1001
ACAD
1000
MTEXTBEGIN
1070
    73
1070
     1
1070
    44
1040
1.0
1070
    74
1070
     0
1000
MTEXTEND
  0
MTEXT
  5
1E12C
330
1E101
100
AcDbEntity
  8
虚线
 62
     7
370
    18
100
AcDbMText
 10
2192.275930348975
 20
73.13380048924227
 30
0.0
 40
17.42318250146345
 41
30.44578335800031
 71
     1
 72
     5
  1
{\fSimSun|b0|i0|c134|p54;页}
 73
     1
 44
1.0
1001
ACAD
1000
MTEXTBEGIN
1070
    73
1070
     1
1070
    44
1040
1.0
1070
    74
1070
     0
1000
MTEXTEND
  0
MTEXT
  5
1E12D
330
1E101
100
AcDbEntity
  8
虚线
 62
     7
370
    18
100
AcDbMText
 10
2120.925654890047
 20
70.83625938568911
 30
0.0
 40
17.42318250146345
 41
57.5434778792685
 71
     1
 72
     5
  1
{\fSimSun|b0|i0|c134|p2;(  )}
 73
     1
 44
1.0
1001
ACAD
1000
MTEXTBEGIN
1070
    73
1070
     1
1070
    44
1040
1.0
1070
    74
1070
     0
1000
MTEXTEND
  0
MTEXT
  5
1E12E
330
1E101
100
AcDbEntity
  8
虚线
 62
     7
370
    18
100
AcDbMText
 10
2060.586885683761
 20
73.38561335347185
 30
0.0
 40
17.42318250146345
 41
34.14130360934069
 71
     1
 72
     5
  1
{\fSimSun|b0|i0|c134|p54;共}
 73
     1
 44
1.0
1001
ACAD
1000
MTEXTBEGIN
1070
    73
1070
     1
1070
    44
1040
1.0
1070
    74
1070
     0
1000
MTEXTEND
  0
MTEXT
  5
1E12F
330
1E101
100
AcDbEntity
  8
虚线
 62
     7
370
    18
100
AcDbMText
 10
2056.974079469213
 20
96.02656450046925
 30
0.0
 40
16.85962463945279
 41
47.23054147487597
 71
     1
 72
     5
  1
{\fSimSun|b0|i0|c134|p2;ALL}
 73
     1
 44
1.0
1001
ACAD
1000
MTEXTBEGIN
1070
    73
1070
     1
1070
    44
1040
1.0
1070
    74
1070
     0
1000
MTEXTEND
  0
MTEXT
  5
1E130
330
1E101
100
AcDbEntity
  8
虚线
 62
     7
370
    18
100
AcDbMText
 10
2192.652793052812
 20
95.33546252384439
 30
0.0
 40
16.85962463945279
 41
28.32891409487727
 71
     1
 72
     5
  1
{\fSimSun|b0|i0|c134|p2;PG}
 73
     1
 44
1.0
1001
ACAD
1000
MTEXTBEGIN
1070
    73
1070
     1
1070
    44
1040
1.0
1070
    74
1070
     0
1000
MTEXTEND
  0
MTEXT
  5
1E131
330
1E101
100
AcDbEntity
  8
虚线
 62
     7
370
    18
100
AcDbMText
 10
2248.001046274063
 20
95.03780681055104
 30
0.0
 40
16.85962463945279
 41
43.78582612087579
 71
     1
 72
     5
  1
{\fSimSun|b0|i0|c134|p2;LSN}
 73
     1
 44
1.0
1001
ACAD
1000
MTEXTBEGIN
1070
    73
1070
     1
1070
    44
1040
1.0
1070
    74
1070
     0
1000
MTEXTEND
  0
MTEXT
  5
1E132
330
1E101
100
AcDbEntity
  8
虚线
 62
     7
370
    18
100
AcDbMText
 10
2370.507996146958
 20
95.39526606430445
 30
0.0
 40
16.85962463945279
 41
47.32288547713962
 71
     1
 72
     5
  1
{\fSimSun|b0|i0|c134|p2;PG}
 73
     1
 44
1.0
1001
ACAD
1000
MTEXTBEGIN
1070
    73
1070
     1
1070
    44
1040
1.0
1070
    74
1070
     0
1000
MTEXTEND
  0
LINE
  5
1E133
330
1E101
100
AcDbEntity
  8
0
370
    -3
100
AcDbLine
 10
2163.995806907444
 20
222.2216457737795
 30
0.0
 11
2163.995806907444
 21
160.6309080221563
 31
0.0
  0
MTEXT
  5
1E134
330
1E101
100
AcDbEntity
  8
虚线
 62
     7
370
    18
100
AcDbMText
 10
1847.234168127428
 20
258.7481823687613
 30
0.0
 40
12.17523596487807
 41
115.4070421766183
 71
     5
 72
     5
  1
{\fSimSun|b0|i0|c134|p2;DATE}
 73
     1
 44
1.0
1001
ACAD
1000
MTEXTBEGIN
1070
    73
1070
     1
1070
    44
1040
1.0
1070
    74
1070
     0
1000
MTEXTEND
  0
MTEXT
  5
1E135
330
1E101
100
AcDbEntity
  8
虚线
 62
     7
370
    18
100
AcDbMText
 10
1847.234168127425
 20
234.9537994105576
 30
0.0
 40
12.17523596487807
 41
115.4070421766193
 71
     5
 72
     5
  1
{\fSimSun|b0|i0|c134|p54;日 期}
 73
     1
 44
1.0
1001
ACAD
1000
MTEXTBEGIN
1070
    73
1070
     1
1070
    44
1040
1.0
1070
    74
1070
     0
1000
MTEXTEND
  0
MTEXT
  5
1E136
330
1E101
100
AcDbEntity
  8
虚线
 62
     7
370
    18
100
AcDbMText
 10
1735.328323572113
 20
235.4644188935108
 30
0.0
 40
16.85962463945279
 41
108.4046469340065
 71
     5
 72
     5
  1
{\fSimSun|b0|i0|c134|p54;\H0.7222x;签 名}
 73
     1
 44
1.0
1001
ACAD
1000
MTEXTBEGIN
1070
    73
1070
     1
1070
    44
1040
1.0
1070
    74
1070
     0
1000
MTEXTEND
  0
MTEXT
  5
1E137
330
1E101
100
AcDbEntity
  8
虚线
 62
     7
370
    18
100
AcDbMText
 10
1632.419361718266
 20
235.2167822780593
 30
0.0
 40
16.85962463945279
 41
97.41327677368307
 71
     5
 72
     5
  1
{\fSimSun|b0|i0|c134|p54;\H0.7222x;处 数}
 73
     1
 44
1.0
1001
ACAD
1000
MTEXTBEGIN
1070
    73
1070
     1
1070
    44
1040
1.0
1070
    74
1070
     0
1000
MTEXTEND
  0
MTEXT
  5
1E138
330
1E101
100
AcDbEntity
  8
虚线
 62
     7
370
    18
100
AcDbMText
 10
1735.328323572113
 20
257.8915299670752
 30
0.0
 40
13.48769971156224
 41
108.4046469340037
 71
     5
 72
     5
  1
{\fSimSun|b0|i0|c134|p2;\H0.9027x;AUTOGRAPH}
 73
     1
 44
1.0
1001
ACAD
1000
MTEXTBEGIN
1070
    73
1070
     1
1070
    44
1040
1.0
1070
    74
1070
     0
1000
MTEXTEND
  0
MTEXT
  5
1E139
330
1E101
100
AcDbEntity
  8
虚线
 62
     7
370
    18
100
AcDbMText
 10
1911.051984446711
 20
206.2631088073285
 30
0.0
 40
16.85962463945279
 41
96.52671365927183
 71
     5
 72
     5
  1
{\fSimSun|b0|i0|c134|p2;NUMBER}
 73
     1
 44
1.0
1001
ACAD
1000
MTEXTBEGIN
1070
    73
1070
     1
1070
    44
1040
1.0
1070
    74
1070
     0
1000
MTEXTEND
  0
MTEXT
  5
1E13A
330
1E101
100
AcDbEntity
  8
虚线
 62
     7
370
    18
100
AcDbMText
 10
1910.766983643894
 20
179.8067708486505
 30
0.0
 40
17.42318250146345
 41
96.52671365927183
 71
     5
 72
     5
  1
{\fSimSun|b0|i0|c134|p54;数 量}
 73
     1
 44
1.0
1001
ACAD
1000
MTEXTBEGIN
1070
    73
1070
     1
1070
    44
1040
1.0
1070
    74
1070
     0
1000
MTEXTEND
  0
LINE
  5
1E13B
330
1E101
100
AcDbEntity
  8
0
370
    -3
100
AcDbLine
 10
1904.937689215736
 20
268.5856135322719
 30
0.0
 11
1452.690059999666
 21
268.5856135322719
 31
0.0
  0
MTEXT
  5
1E13C
330
1E101
100
AcDbEntity
  8
虚线
 62
     7
370
    18
100
AcDbMText
 10
1632.41936171827
 20
257.8915299670734
 30
0.0
 40
13.48769971156224
 41
97.41327677368692
 71
     5
 72
     5
  1
{\fSimSun|b0|i0|c134|p2;\H0.9027x;POSITION}
 73
     1
 44
1.0
1001
ACAD
1000
MTEXTBEGIN
1070
    73
1070
     1
1070
    44
1040
1.0
1070
    74
1070
     0
1000
MTEXTEND
  0
MTEXT
  5
1E13D
330
1E101
100
AcDbEntity
  8
虚线
 62
     7
370
    18
100
AcDbMText
 10
1911.051984446711
 20
117.8294252596661
 30
0.0
 40
17.42318250146345
 41
96.52671365927204
 71
     5
 72
     5
  1
{\fSimSun|b0|i0|c134|p54;比 例}
 73
     1
 44
1.0
1001
ACAD
1000
MTEXTBEGIN
1070
    73
1070
     1
1070
    44
1040
1.0
1070
    74
1070
     0
1000
MTEXTEND
  0
MTEXT
  5
1E13E
330
1E101
100
AcDbEntity
  8
虚线
 62
     7
370
    18
100
AcDbMText
 10
1910.953032741443
 20
61.01897764177556
 30
0.0
 40
17.42318250146345
 41
96.46079182381939
 71
     5
 72
     5
  1
{\fSimSun|b0|i0|c134|p54;版 次}
 73
     1
 44
1.0
1001
ACAD
1000
MTEXTBEGIN
1070
    73
1070
     1
1070
    44
1040
1.0
1070
    74
1070
     0
1000
MTEXTEND
  0
LINE
  5
1E13F
330
1E101
100
AcDbEntity
  8
0
370
    -3
100
AcDbLine
 10
1959.315341276344
 20
222.2216457737741
 30
0.0
 11
1959.315341276344
 21
45.04501189032999
 31
0.0
  0
MTEXT
  5
1E140
330
1E101
100
AcDbEntity
  8
虚线
 62
     7
370
    18
100
AcDbMText
 10
1911.051984446711
 20
84.56117264812746
 30
0.0
 40
16.85962463945279
 41
96.52671365927234
 71
     5
 72
     5
  1
{\fSimSun|b0|i0|c134|p2;REV.} 
 73
     1
 44
1.0
1001
ACAD
1000
MTEXTBEGIN
1070
    73
1070
     1
1070
    44
1040
1.0
1070
    74
1070
     0
1000
MTEXTEND
  0
LINE
  5
1E141
330
1E101
100
AcDbEntity
  8
0
370
    -3
100
AcDbLine
 10
1862.788627617072
 20
222.2216457737741
 30
0.0
 11
1862.788627617072
 21
45.04501189032999
 31
0.0
  0
LINE
  5
1E142
330
1E101
100
AcDbEntity
  8
0
370
    -3
100
AcDbLine
 10
1702.473713532836
 20
222.2216457737741
 30
0.0
 11
1702.473713532814
 21
45.04501189032999
 31
0.0
  0
MTEXT
  5
1E143
330
1E101
100
AcDbEntity
  8
虚线
 62
     7
370
    18
100
AcDbMText
 10
1911.051984446711
 20
144.3898047508501
 30
0.0
 40
16.85962463945279
 41
96.52671365927139
 71
     5
 72
     5
  1
{\fSimSun|b0|i0|c134|p2;SCALE}
 73
     1
 44
1.0
1001
ACAD
1000
MTEXTBEGIN
1070
    73
1070
     1
1070
    44
1040
1.0
1070
    74
1070
     0
1000
MTEXTEND
  0
LINE
  5
1E144
330
1E101
100
AcDbEntity
  8
0
370
    -3
100
AcDbLine
 10
2417.830881624099
 20
99.04017027053306
 30
0.0
 11
1452.690059999666
 21
99.04017027053306
 31
0.0
  0
LINE
  5
1E145
330
1E101
100
AcDbEntity
  8
0
370
    -3
100
AcDbLine
 10
2417.830881624099
 20
160.6309080221563
 30
0.0
 11
1452.690059999666
 21
160.6309080221563
 31
0.0
  0
MTEXT
  5
1E146
330
1E101
100
AcDbEntity
  8
虚线
 62
     7
370
    18
100
AcDbMText
 10
2004.0943829759
 20
73.37405260031665
 30
0.0
 40
18.018
 41
89.55808339910408
 71
     5
 72
     5
  1
{\fSimSun|b0|i0|c134|p2;A/0}
 73
     1
 44
1.0
1001
ACAD
1000
MTEXTBEGIN
1070
    73
1070
     1
1070
    44
1040
1.0
1070
    74
1070
     0
1000
MTEXTEND
  0
LINE
  5
1E147
330
1E101
100
AcDbEntity
  8
0
370
    -3
100
AcDbLine
 10
2417.830881624099
 20
222.2216457737741
 30
0.0
 11
1452.690059999666
 21
222.2216457737741
 31
0.0
  0
LINE
  5
1E148
330
1E101
100
AcDbEntity
  8
0
370
    -3
100
AcDbLine
 10
1904.937689215736
 20
443.2951598210693
 30
0.0
 11
1904.937689215736
 21
222.2216457737741
 31
0.0
  0
LINE
  5
1E149
330
1E101
100
AcDbEntity
  8
0
370
    -3
100
AcDbLine
 10
1789.530647039119
 20
336.9733089572874
 30
0.0
 11
1789.530647039115
 21
222.2216457737741
 31
0.0
  0
LINE
  5
1E14A
330
1E101
100
AcDbEntity
  8
0
370
    -3
100
AcDbLine
 10
1681.126000105125
 20
336.9733089572874
 30
0.0
 11
1681.126000105107
 21
222.2216457737741
 31
0.0
  0
LINE
  5
1E14B
330
1E101
100
AcDbEntity
  8
0
370
    60
100
AcDbLine
 10
112.612524344966
 20
45.04501189032999
 30
0.0
 11
2417.830881624099
 21
45.04501189032999
 31
0.0
  0
MTEXT
  5
1E14C
330
1E101
100
AcDbEntity
  8
标注线
  6
Continuous
100
AcDbMText
 10
2161.384285419916
 20
281.4169567106183
 30
0.0
 40
19.5
 41
512.8931924083632
 71
     5
 72
     5
  1
{\C7;KSSX-4830R(HA104-R15)\fSimSun|b0|i0|c134|p54;展开图}
 73
     1
 44
1.0
1001
ACAD
1000
ACAD_MTEXT_DEFINED_HEIGHT_BEGIN
1070
    46
1040
0.0
1000
ACAD_MTEXT_DEFINED_HEIGHT_END
1000
MTEXTBEGIN
1070
    73
1070
     1
1070
    44
1040
1.0
1070
    74
1070
     0
1000
MTEXTEND
  0
LINE
  5
1E14D
330
1E101
100
AcDbEntity
  8
0
370
    60
100
AcDbLine
 10
2462.875881624097
 20
1712.54214417432
 30
0.0
 11
2462.875881624082
 21
0.0000118903317343
 31
0.0
  0
LINE
  5
1E14E
330
1E101
100
AcDbEntity
  8
0
370
    60
100
AcDbLine
 10
0.0000243449612753
 20
0.0000118903317343
 30
0.0
 11
2462.875881624082
 21
0.0000118903317343
 31
0.0
  0
MTEXT
  5
1E14F
330
1E101
100
AcDbEntity
  8
虚线
 62
     7
370
    18
100
AcDbMText
 10
2290.913344265775
 20
192.720656211206
 30
0.0
 40
21.6216
 41
253.8350747166542
 71
     5
 72
     5
  1
{\fSimSun|b0|i0|c134|p2;T=1.2mm  SUS304}
 73
     1
 44
1.0
1001
ACAD
1000
MTEXTBEGIN
1070
    73
1070
     1
1070
    44
1040
1.0
1070
    74
1070
     0
1000
MTEXTEND
  0
MTEXT
  5
1E150
330
1E101
100
AcDbEntity
  8
标注线
  6
Continuous
 62
     7
100
AcDbMText
 10
1678.813874607702
 20
405.1502165102174
 30
0.0
 40
31.13510400000001
 41
452.2476292160706
 71
     5
 72
     5
  1
{\fKaiTi_GB2312|b0|i0|c134|p49;东原厨具实业有限公司}
 73
     1
 44
1.0
1001
ACAD
1000
MTEXTBEGIN
1070
    73
1070
     1
1070
    44
1040
1.0
1070
    74
1070
     0
1000
MTEXTEND
  0
MTEXT
  5
1E151
330
1E101
100
AcDbEntity
  8
虚线
 62
     7
370
    18
100
AcDbMText
 10
1678.813874607702
 20
359.2127169601081
 30
0.0
 40
15.85584
 41
452.247629216071
 71
     5
 72
     5
  1
{\fSimSun|b0|i0|c134|p2;DONGYUAN KITCHENWARE INDUSTRIAL CO.,LTD}
 73
     1
 44
1.0
1001
ACAD
1000
MTEXTBEGIN
1070
    73
1070
     1
1070
    44
1040
1.0
1070
    74
1070
     0
1000
MTEXTEND
  0
MTEXT
  5
1E152
330
1E101
100
AcDbEntity
  8
虚线
 62
     7
370
    18
100
AcDbMText
 10
1627.363300439165
 20
190.6733500499358
 30
0.0
 40
24.024
 41
150.2208261873374
 71
     5
 72
     5
  1
{\fSimSun|b0|i0|c134|p2;谢海帆}
 73
     1
 44
1.0
1001
ACAD
1000
MTEXTBEGIN
1070
    73
1070
     1
1070
    44
1040
1.0
1070
    74
1070
     0
1000
MTEXTEND
  0
MTEXT
  5
1E153
330
1E101
100
AcDbEntity
  8
虚线
 62
     7
370
    18
100
AcDbMText
 10
1782.631170574952
 20
188.9610715666785
 30
0.0
 40
18.018
 41
160.3149140842419
 71
     5
 72
     5
  1
{\fSimSun|b0|i0|c134|p2;2008.12.17}
 73
     1
 44
1.0
1001
ACAD
1000
ACAD_MTEXT_DEFINED_HEIGHT_BEGIN
1070
    46
1040
0.0
1000
ACAD_MTEXT_DEFINED_HEIGHT_END
1000
MTEXTBEGIN
1070
    73
1070
     1
1070
    44
1040
1.0
1070
    74
1070
     0
1000
MTEXTEND
  0
MTEXT
  5
1E154
330
1E101
100
AcDbEntity
  8
虚线
 62
     7
370
    18
100
AcDbMText
 10
2137.173546853215
 20
68.63756663933782
 30
0.0
 40
17.42318250146345
 41
11.77304548565917
 71
     1
 72
     5
  1
{\fSimSun|b0|i0|c134|p2;2}
 73
     1
 44
1.0
1001
ACAD
1000
ACAD_MTEXT_DEFINED_HEIGHT_BEGIN
1070
    46
1040
0.0
1000
ACAD_MTEXT_DEFINED_HEIGHT_END
1000
MTEXTBEGIN
1070
    73
1070
     1
1070
    44
1040
1.0
1070
    74
1070
     0
1000
MTEXTEND
  0
MTEXT
  5
1E155
330
1E101
100
AcDbEntity
  8
虚线
 62
     7
370
    18
100
AcDbMText
 10
2320.559748715912
 20
67.99881022880618
 30
0.0
 40
17.42318250146345
 41
13.2730795144362
 71
     1
 72
     5
  1
{\fSimSun|b0|i0|c134|p2;2}
 73
     1
 44
1.0
1001
ACAD
1000
ACAD_MTEXT_DEFINED_HEIGHT_BEGIN
1070
    46
1040
0.0
1000
ACAD_MTEXT_DEFINED_HEIGHT_END
1000
MTEXTBEGIN
1070
    73
1070
     1
1070
    44
1040
1.0
1070
    74
1070
     0
1000
MTEXTEND
  0
LINE
  5
1E156
330
1E101
100
AcDbEntity
  8
0
370
    60
100
AcDbLine
 10
2417.830881624099
 20
1667.497144174322
 30
0.0
 11
112.612524344966
 21
1667.497144174322
 31
0.0
  0
LINE
  5
1E157
330
1E101
100
AcDbEntity
  8
0
370
    60
100
AcDbLine
 10
112.612524344966
 20
45.04501189032999
 30
0.0
 11
112.612524344966
 21
1667.497144174322
 31
0.0
  0
LINE
  5
1E158
330
1E101
100
AcDbEntity
  8
0
370
    60
100
AcDbLine
 10
2462.875881624097
 20
1712.54214417432
 30
0.0
 11
0.0000243449612753
 21
1712.542144174318
 31
0.0
  0
LINE
  5
1E159
330
1E101
100
AcDbEntity
  8
0
370
    60
100
AcDbLine
 10
0.0000243449612753
 20
0.0000118903317343
 30
0.0
 11
0.0000243449612753
 21
1712.542144174318
 31
0.0
  0
MTEXT
  5
1E15A
330
1E101
100
AcDbEntity
  8
虚线
 62
     7
370
    18
100
AcDbMText
 10
2218.304813938206
 20
418.6819496252174
 30
0.0
 40
19.968
 41
399.0521353717807
 71
     5
 72
     5
  1
{\fSimSun|b0|i0|c134|p2;圆角R15手工单盆}
 73
     1
 44
1.0
1001
ACAD
1000
ACAD_MTEXT_DEFINED_HEIGHT_BEGIN
1070
    46
1040
20.22399999999779
1000
ACAD_MTEXT_DEFINED_HEIGHT_END
1000
MTEXTBEGIN
1070
    73
1070
     1
1070
    44
1040
1.0
1070
    74
1070
     0
1000
MTEXTEND
  0
ENDBLK
  5
1E15E
330
1E101
100
AcDbEntity
  8
0
100
AcDbBlockEnd
  0
BLOCK
  5
1EBF7
330
1EBED
100
AcDbEntity
  8
0
100
AcDbBlockBegin
  2
*D30
 70
     1
 10
0.0
 20
0.0
 30
0.0
  3
*D30
  1

  0
LINE
  5
1ED6D
330
1EBED
100
AcDbEntity
  8
0
370
    15
100
AcDbLine
 10
-8842.729592432233
 20
4476.211400999027
 30
0.0
 11
-8727.202653736602
 21
4476.211400999027
 31
0.0
  0
LINE
  5
1ED6E
330
1EBED
100
AcDbEntity
  8
0
370
    15
100
AcDbLine
 10
-8842.729592432233
 20
3968.211400999026
 30
0.0
 11
-8727.202653736604
 21
3968.211400999026
 31
0.0
  0
LINE
  5
1ED6F
330
1EBED
100
AcDbEntity
  8
0
370
    15
100
AcDbLine
 10
-8735.202653736601
 20
4461.211400999027
 30
0.0
 11
-8735.202653736605
 21
3983.211400999026
 31
0.0
  0
SOLID
  5
1ED70
330
1EBED
100
AcDbEntity
  8
0
100
AcDbTrace
 10
-8737.702653736603
 20
4461.211400999027
 30
0.0
 11
-8732.702653736602
 21
4461.211400999027
 31
0.0
 12
-8735.202653736601
 22
4476.211400999027
 32
0.0
 13
-8735.202653736601
 23
4476.211400999027
 33
0.0
  0
SOLID
  5
1ED71
330
1EBED
100
AcDbEntity
  8
0
100
AcDbTrace
 10
-8737.702653736603
 20
3983.211400999026
 30
0.0
 11
-8732.702653736604
 21
3983.211400999026
 31
0.0
 12
-8735.202653736605
 22
3968.211400999026
 32
0.0
 13
-8735.202653736605
 23
3968.211400999026
 33
0.0
  0
MTEXT
  5
1ED72
330
1EBED
100
AcDbEntity
  8
0
 62
     0
100
AcDbMText
 10
-8750.869320403269
 20
4222.211400999025
 30
0.0
 40
20.0
 41
0.0
 71
     5
 72
     1
  1
508mm(20")
 11
0.0000000000000001
 21
1.0
 31
0.0
 73
     1
 44
1.0
1001
ACAD
1000
MTEXTBEGIN
1070
    73
1070
     1
1070
    44
1040
1.0
1070
    74
1070
     0
1000
MTEXTEND
  0
POINT
  5
1ED73
330
1EBED
100
AcDbEntity
  8
Defpoints
 62
     0
100
AcDbPoint
 10
-8850.729592432234
 20
4476.211400999027
 30
0.0
  0
POINT
  5
1ED74
330
1EBED
100
AcDbEntity
  8
Defpoints
 62
     0
100
AcDbPoint
 10
-8850.729592432232
 20
3968.211400999026
 30
0.0
  0
POINT
  5
1ED75
330
1EBED
100
AcDbEntity
  8
Defpoints
 62
     0
100
AcDbPoint
 10
-8735.202653736605
 20
3968.211400999026
 30
0.0
  0
ENDBLK
  5
1EBF8
330
1EBED
100
AcDbEntity
  8
0
100
AcDbBlockEnd
  0
BLOCK
  5
1EC03
330
1EBF9
100
AcDbEntity
  8
0
100
AcDbBlockBegin
  2
*D31
 70
     1
 10
0.0
 20
0.0
 30
0.0
  3
*D31
  1

  0
LINE
  5
1ED7F
330
1EBF9
100
AcDbEntity
  8
0
370
    15
100
AcDbLine
 10
-9333.32959243223
 20
3960.211400999025
 30
0.0
 11
-9333.32959243223
 21
3857.983764540281
 31
0.0
  0
LINE
  5
1ED80
330
1EBF9
100
AcDbEntity
  8
0
370
    15
100
AcDbLine
 10
-8850.729592432232
 20
3960.211400999025
 30
0.0
 11
-8850.729592432232
 21
3857.983764540281
 31
0.0
  0
LINE
  5
1ED81
330
1EBF9
100
AcDbEntity
  8
0
370
    15
100
AcDbLine
 10
-9318.329592432231
 20
3865.98376454028
 30
0.0
 11
-8865.729592432231
 21
3865.98376454028
 31
0.0
  0
SOLID
  5
1ED82
330
1EBF9
100
AcDbEntity
  8
0
100
AcDbTrace
 10
-9318.329592432231
 20
3868.48376454028
 30
0.0
 11
-9318.329592432231
 21
3863.48376454028
 31
0.0
 12
-9333.32959243223
 22
3865.98376454028
 32
0.0
 13
-9333.32959243223
 23
3865.98376454028
 33
0.0
  0
SOLID
  5
1ED83
330
1EBF9
100
AcDbEntity
  8
0
100
AcDbTrace
 10
-8865.729592432231
 20
3868.48376454028
 30
0.0
 11
-8865.729592432231
 21
3863.48376454028
 31
0.0
 12
-8850.729592432232
 22
3865.98376454028
 32
0.0
 13
-8850.729592432232
 23
3865.98376454028
 33
0.0
  0
MTEXT
  5
1ED84
330
1EBF9
100
AcDbEntity
  8
0
 62
     0
100
AcDbMText
 10
-9092.029592432231
 20
3881.650431206947
 30
0.0
 40
20.0
 41
0.0
 71
     5
 72
     1
  1
483mm(19")
 73
     1
 44
1.0
1001
ACAD
1000
MTEXTBEGIN
1070
    73
1070
     1
1070
    44
1040
1.0
1070
    74
1070
     0
1000
MTEXTEND
  0
POINT
  5
1ED85
330
1EBF9
100
AcDbEntity
  8
Defpoints
 62
     0
100
AcDbPoint
 10
-9333.32959243223
 20
3968.211400999026
 30
0.0
  0
POINT
  5
1ED86
330
1EBF9
100
AcDbEntity
  8
Defpoints
 62
     0
100
AcDbPoint
 10
-8850.729592432232
 20
3968.211400999026
 30
0.0
  0
POINT
  5
1ED87
330
1EBF9
100
AcDbEntity
  8
Defpoints
 62
     0
100
AcDbPoint
 10
-8850.729592432232
 20
3865.98376454028
 30
0.0
  0
ENDBLK
  5
1EC04
330
1EBF9
100
AcDbEntity
  8
0
100
AcDbBlockEnd
  0
BLOCK
  5
1EC18
330
1EC0E
100
AcDbEntity
  8
0
100
AcDbBlockBegin
  2
*D32
 70
     1
 10
0.0
 20
0.0
 30
0.0
  3
*D32
  1

  0
LINE
  5
1ED64
330
1EC0E
100
AcDbEntity
  8
0
370
    15
100
AcDbLine
 10
-8868.12959243223
 20
4450.811400999025
 30
0.0
 11
-8776.712122064891
 21
4450.811400999025
 31
0.0
  0
LINE
  5
1ED65
330
1EC0E
100
AcDbEntity
  8
0
370
    15
100
AcDbLine
 10
-8868.12959243223
 20
3993.611400999025
 30
0.0
 11
-8776.712122064891
 21
3993.611400999025
 31
0.0
  0
LINE
  5
1ED66
330
1EC0E
100
AcDbEntity
  8
0
370
    15
100
AcDbLine
 10
-8784.71212206489
 20
4435.811400999026
 30
0.0
 11
-8784.712122064892
 21
4008.611400999025
 31
0.0
  0
SOLID
  5
1ED67
330
1EC0E
100
AcDbEntity
  8
0
100
AcDbTrace
 10
-8787.212122064889
 20
4435.811400999026
 30
0.0
 11
-8782.212122064889
 21
4435.811400999026
 31
0.0
 12
-8784.71212206489
 22
4450.811400999025
 32
0.0
 13
-8784.71212206489
 23
4450.811400999025
 33
0.0
  0
SOLID
  5
1ED68
330
1EC0E
100
AcDbEntity
  8
0
100
AcDbTrace
 10
-8787.212122064891
 20
4008.611400999025
 30
0.0
 11
-8782.21212206489
 21
4008.611400999025
 31
0.0
 12
-8784.712122064892
 22
3993.611400999025
 32
0.0
 13
-8784.712122064892
 23
3993.611400999025
 33
0.0
  0
MTEXT
  5
1ED69
330
1EC0E
100
AcDbEntity
  8
0
 62
     0
100
AcDbMText
 10
-8800.378788731558
 20
4222.211400999024
 30
0.0
 40
20.0
 41
0.0
 71
     5
 72
     1
  1
457mm(18")
 11
0.0000000000000001
 21
1.0
 31
0.0
 73
     1
 44
1.0
1001
ACAD
1000
MTEXTBEGIN
1070
    73
1070
     1
1070
    44
1040
1.0
1070
    74
1070
     0
1000
MTEXTEND
  0
POINT
  5
1ED6A
330
1EC0E
100
AcDbEntity
  8
Defpoints
 62
     0
100
AcDbPoint
 10
-8876.129592432231
 20
4450.811400999025
 30
0.0
  0
POINT
  5
1ED6B
330
1EC0E
100
AcDbEntity
  8
Defpoints
 62
     0
100
AcDbPoint
 10
-8876.129592432231
 20
3993.611400999025
 30
0.0
  0
POINT
  5
1ED6C
330
1EC0E
100
AcDbEntity
  8
Defpoints
 62
     0
100
AcDbPoint
 10
-8784.712122064892
 20
3993.611400999025
 30
0.0
  0
ENDBLK
  5
1EC19
330
1EC0E
100
AcDbEntity
  8
0
100
AcDbBlockEnd
  0
BLOCK
  5
1EC24
330
1EC1A
100
AcDbEntity
  8
0
100
AcDbBlockBegin
  2
*D33
 70
     1
 10
0.0
 20
0.0
 30
0.0
  3
*D33
  1

  0
LINE
  5
1ED76
330
1EC1A
100
AcDbEntity
  8
0
370
    15
100
AcDbLine
 10
-9307.92959243223
 20
3985.611400999025
 30
0.0
 11
-9307.92959243223
 21
3908.644667045868
 31
0.0
  0
LINE
  5
1ED77
330
1EC1A
100
AcDbEntity
  8
0
370
    15
100
AcDbLine
 10
-8876.129592432231
 20
3985.611400999025
 30
0.0
 11
-8876.129592432231
 21
3908.644667045868
 31
0.0
  0
LINE
  5
1ED78
330
1EC1A
100
AcDbEntity
  8
0
370
    15
100
AcDbLine
 10
-9292.92959243223
 20
3916.644667045868
 30
0.0
 11
-8891.129592432232
 21
3916.644667045868
 31
0.0
  0
SOLID
  5
1ED79
330
1EC1A
100
AcDbEntity
  8
0
100
AcDbTrace
 10
-9292.92959243223
 20
3919.144667045868
 30
0.0
 11
-9292.92959243223
 21
3914.144667045869
 31
0.0
 12
-9307.92959243223
 22
3916.644667045868
 32
0.0
 13
-9307.92959243223
 23
3916.644667045868
 33
0.0
  0
SOLID
  5
1ED7A
330
1EC1A
100
AcDbEntity
  8
0
100
AcDbTrace
 10
-8891.129592432232
 20
3919.144667045868
 30
0.0
 11
-8891.129592432232
 21
3914.144667045869
 31
0.0
 12
-8876.129592432231
 22
3916.644667045868
 32
0.0
 13
-8876.129592432231
 23
3916.644667045868
 33
0.0
  0
MTEXT
  5
1ED7B
330
1EC1A
100
AcDbEntity
  8
0
 62
     0
100
AcDbMText
 10
-9092.029592432231
 20
3932.311333712535
 30
0.0
 40
20.0
 41
0.0
 71
     5
 72
     1
  1
432mm(17")
 73
     1
 44
1.0
1001
ACAD
1000
MTEXTBEGIN
1070
    73
1070
     1
1070
    44
1040
1.0
1070
    74
1070
     0
1000
MTEXTEND
  0
POINT
  5
1ED7C
330
1EC1A
100
AcDbEntity
  8
Defpoints
 62
     0
100
AcDbPoint
 10
-9307.92959243223
 20
3993.611400999025
 30
0.0
  0
POINT
  5
1ED7D
330
1EC1A
100
AcDbEntity
  8
Defpoints
 62
     0
100
AcDbPoint
 10
-8876.129592432231
 20
3993.611400999025
 30
0.0
  0
POINT
  5
1ED7E
330
1EC1A
100
AcDbEntity
  8
Defpoints
 62
     0
100
AcDbPoint
 10
-8876.129592432231
 20
3916.644667045868
 30
0.0
  0
ENDBLK
  5
1EC25
330
1EC1A
100
AcDbEntity
  8
0
100
AcDbBlockEnd
  0
BLOCK
  5
1EC9A
330
1EC94
100
AcDbEntity
  8
0
100
AcDbBlockBegin
  2
*D34
 70
     1
 10
0.0
 20
0.0
 30
0.0
  3
*D34
  1

  0
LINE
  5
1ECD8
330
1EC94
100
AcDbEntity
  8
0
370
    15
100
AcDbLine
 10
-9248.375754843184
 20
4390.856023343642
 30
0.0
 11
-9291.447226209909
 21
4434.364744861661
 31
0.0
  0
MTEXT
  5
1ECD9
330
1EC94
100
AcDbEntity
  8
0
 62
     0
100
AcDbMText
 10
-9255.396345817178
 20
4416.426216130675
 30
0.0
 40
20.0
 41
0.0
 71
     5
 72
     1
  1
R20
 11
0.703526755536339
 21
-0.7106687725266338
 31
0.0
 73
     1
 44
1.0
1001
ACAD
1000
MTEXTBEGIN
1070
    73
1070
     1
1070
    44
1040
1.0
1070
    74
1070
     0
1000
MTEXTEND
  0
SOLID
  5
1ECDA
330
1EC94
100
AcDbEntity
  8
0
100
AcDbTrace
 10
-9289.670554278593
 20
4436.123561750501
 30
0.0
 11
-9293.223898141226
 21
4432.60592797282
 31
0.0
 12
-9302.000127542953
 22
4445.024776449559
 32
0.0
 13
-9302.000127542953
 23
4445.024776449559
 33
0.0
  0
POINT
  5
1ECDB
330
1EC94
100
AcDbEntity
  8
Defpoints
 62
     0
100
AcDbPoint
 10
-9302.000127542953
 20
4445.024776449559
 30
0.0
  0
POINT
  5
1ECDC
330
1EC94
100
AcDbEntity
  8
Defpoints
 62
     0
100
AcDbPoint
 10
-9287.929592432233
 20
4430.811400999034
 30
0.0
  0
ENDBLK
  5
1EC9B
330
1EC94
100
AcDbEntity
  8
0
100
AcDbBlockEnd
  0
ENDSEC
  0
SECTION
  2
ENTITIES
  0
DIMENSION
  5
1EBE1
330
1F
100
AcDbEntity
  8
0
100
AcDbDimension
  2
*D30
 10
-8735.202653736605
 20
3968.211400999026
 30
0.0
 11
-8735.202653736605
 21
4222.211400999025
 31
0.0
 70
   160
  1
508mm(20")
 71
     5
 42
508.0000000000018
  3
ISO-25
100
AcDbAlignedDimension
 13
-8850.729592432234
 23
4476.211400999027
 33
0.0
 14
-8850.729592432232
 24
3968.211400999026
 34
0.0
 50
90.0
100
AcDbRotatedDimension
1001
ACAD
1000
DSTYLE
1002
{
1070
   176
1070
   256
1070
   177
1070
   256
1002
}
  0
DIMENSION
  5
1EBE2
330
1F
100
AcDbEntity
  8
0
100
AcDbDimension
  2
*D32
 10
-8784.712122064892
 20
3993.611400999025
 30
0.0
 11
-8784.712122064892
 21
4222.211400999024
 31
0.0
 70
   160
  1
457mm(18")
 71
     5
 42
457.2000000000007
  3
ISO-25
100
AcDbAlignedDimension
 13
-8876.129592432231
 23
4450.811400999025
 33
0.0
 14
-8876.129592432231
 24
3993.611400999025
 34
0.0
 50
90.0
100
AcDbRotatedDimension
1001
ACAD
1000
DSTYLE
1002
{
1070
   176
1070
   256
1070
   177
1070
   256
1002
}
  0
DIMENSION
  5
1EBE5
330
1F
100
AcDbEntity
  8
0
100
AcDbDimension
  2
*D33
 10
-8876.129592432231
 20
3916.644667045868
 30
0.0
 11
-9092.029592432231
 21
3916.644667045868
 31
0.0
 70
   160
  1
432mm(17")
 71
     5
 42
431.7999999999992
  3
ISO-25
100
AcDbAlignedDimension
 13
-9307.92959243223
 23
3993.611400999025
 33
0.0
 14
-8876.129592432231
 24
3993.611400999025
 34
0.0
100
AcDbRotatedDimension
1001
ACAD
1000
DSTYLE
1002
{
1070
   177
1070
   256
1070
   176
1070
   256
1002
}
  0
DIMENSION
  5
1EBE8
330
1F
100
AcDbEntity
  8
0
100
AcDbDimension
  2
*D31
 10
-8850.729592432232
 20
3865.98376454028
 30
0.0
 11
-9092.029592432231
 21
3865.98376454028
 31
0.0
 70
   160
  1
483mm(19")
 71
     5
 42
482.5999999999985
  3
ISO-25
100
AcDbAlignedDimension
 13
-9333.32959243223
 23
3968.211400999026
 33
0.0
 14
-8850.729592432232
 24
3968.211400999026
 34
0.0
100
AcDbRotatedDimension
1001
ACAD
1000
DSTYLE
1002
{
1070
   176
1070
   256
1070
   177
1070
   256
1002
}
  0
LINE
  5
1EBE9
330
1F
100
AcDbEntity
  8
0
100
AcDbLine
 10
-8850.729592432232
 20
3968.211400999026
 30
0.0
 11
-8850.729592432234
 21
4476.211400999027
 31
0.0
  0
LINE
  5
1EBEA
330
1F
100
AcDbEntity
  8
0
100
AcDbLine
 10
-8850.729592432234
 20
4476.211400999027
 30
0.0
 11
-9333.32959243223
 21
4476.211400999023
 31
0.0
  0
LINE
  5
1EBEB
330
1F
100
AcDbEntity
  8
0
100
AcDbLine
 10
-9333.32959243223
 20
3968.211400999026
 30
0.0
 11
-8850.729592432232
 21
3968.211400999026
 31
0.0
  0
LINE
  5
1EBEC
330
1F
100
AcDbEntity
  8
0
100
AcDbLine
 10
-9333.32959243223
 20
4476.211400999023
 30
0.0
 11
-9333.32959243223
 21
3968.211400999026
 31
0.0
  0
LINE
  5
1EC2F
330
1F
100
AcDbEntity
  8
0
100
AcDbLine
 10
-9307.929592432232
 20
4430.811400999028
 30
0.0
 11
-9307.92959243223
 21
4013.611400999025
 31
0.0
  0
LINE
  5
1EC30
330
1F
100
AcDbEntity
  8
0
100
AcDbLine
 10
-9287.929592432231
 20
3993.611400999025
 30
0.0
 11
-8896.129592432231
 21
3993.611400999025
 31
0.0
  0
LINE
  5
1EC31
330
1F
100
AcDbEntity
  8
0
100
AcDbLine
 10
-8896.129592432231
 20
4450.811400999026
 30
0.0
 11
-9287.929592432233
 21
4450.811400999028
 31
0.0
  0
LINE
  5
1EC32
330
1F
100
AcDbEntity
  8
0
100
AcDbLine
 10
-8876.129592432231
 20
4013.611400999025
 30
0.0
 11
-8876.129592432231
 21
4430.811400999027
 31
0.0
  0
ARC
  5
1EC45
330
1F
100
AcDbEntity
  8
0
100
AcDbCircle
 10
-9287.929592432231
 20
4013.611400999025
 30
0.0
 40
20.0
100
AcDbArc
 50
180.0
 51
270.0
  0
ARC
  5
1EC46
330
1F
100
AcDbEntity
  8
0
100
AcDbCircle
 10
-8896.129592432231
 20
4013.611400999025
 30
0.0
 40
20.0
100
AcDbArc
 50
270.0
 51
0.0
  0
ARC
  5
1EC47
330
1F
100
AcDbEntity
  8
0
100
AcDbCircle
 10
-8896.129592432231
 20
4430.811400999027
 30
0.0
 40
20.0
100
AcDbArc
 50
0.0
 51
89.99999999999976
  0
ARC
  5
1EC48
102
{ACAD_REACTORS
330
1ECA2
102
}
330
1F
100
AcDbEntity
  8
0
100
AcDbCircle
 10
-9287.929592432233
 20
4430.811400999028
 30
0.0
 40
20.0
100
AcDbArc
 50
89.99999999999987
 51
180.0
  0
DIMENSION
  5
1EC93
102
{ACAD_XDICTIONARY
360
1EC9C
102
}
102
{ACAD_REACTORS
330
1ECA2
102
}
330
1F
100
AcDbEntity
  8
0
100
AcDbDimension
  2
*D34
 10
-9287.929592432233
 20
4430.811400999034
 30
0.0
 11
-9264.635039860023
 21
4407.280368308702
 31
0.0
 70
   164
 71
     5
 42
19.99999999999272
  3
ISO-25
100
AcDbRadialDimension
 15
-9302.000127542953
 25
4445.024776449559
 35
0.0
 40
0.0
1001
ACAD
1000
DSTYLE
1002
{
1070
   176
1070
   256
1070
   177
1070
   256
1002
}
  0
ENDSEC
  0
SECTION
  2
OBJECTS
  0
DICTIONARY
  5
C
330
0
100
AcDbDictionary
281
     1
  3
ACAD_COLOR
350
6B
  3
ACAD_GROUP
350
D
  3
ACAD_LAYOUT
350
1A
  3
ACAD_MATERIAL
350
6A
  3
ACAD_MLINESTYLE
350
17
  3
ACAD_PLOTSETTINGS
350
19
  3
ACAD_PLOTSTYLENAME
350
E
  3
ACAD_TABLESTYLE
350
1170B
  3
ACDBHEADERROUNDTRIPXREC
350
1EDB9
  3
AcDbVariableDictionary
350
5E
  3
ASE_INDEX_DICTIONARY
350
5D54
  0
DICTIONARY
  5
FBE5
330
2
100
AcDbDictionary
280
     1
281
     1
  3
ACAD_LAYERFILTERS
360
18948
  3
ACAD_LAYERSTATES
360
FBE6
  3
ACLYDICTIONARY
360
18947
  0
DICTIONARY
  5
123C6
330
1F
100
AcDbDictionary
280
     1
281
     1
  3
ACAD_SORTENTS
360
123C7
  0
DICTIONARY
  5
1900A
330
18FB0
100
AcDbDictionary
280
     1
281
     1
  3
ACAD_SORTENTS
360
1900B
  0
DICTIONARY
  5
1915B
330
19154
100
AcDbDictionary
280
     1
281
     1
  3
ACAD_SORTENTS
360
1915C
  0
DICTIONARY
  5
1941B
330
193C1
100
AcDbDictionary
280
     1
281
     1
  3
ACAD_SORTENTS
360
1941C
  0
DICTIONARY
  5
19956
330
1994F
100
AcDbDictionary
280
     1
281
     1
  3
ACAD_SORTENTS
360
19957
  0
DICTIONARY
  5
19A54
330
19A4C
100
AcDbDictionary
280
     1
281
     1
  3
ACAD_SORTENTS
360
19A55
  0
DICTIONARY
  5
19C32
330
19C0F
100
AcDbDictionary
280
     1
281
     1
  3
ACAD_SORTENTS
360
19C33
  0
DICTIONARY
  5
1DD72
330
1DD18
100
AcDbDictionary
280
     1
281
     1
  3
ACAD_SORTENTS
360
1DD73
  0
DICTIONARY
  5
1E15B
330
1E101
100
AcDbDictionary
280
     1
281
     1
  3
ACAD_SORTENTS
360
1E15C
  0
DICTIONARY
  5
FBE9
330
FBE8
100
AcDbDictionary
280
     1
281
     1
  3
ACAD_DIMASSOC
360
FBEA
  0
DICTIONARY
  5
FBEC
330
FBEB
100
AcDbDictionary
280
     1
281
     1
  3
ACAD_DIMASSOC
360
FBED
  0
DICTIONARY
  5
FBEF
330
FBEE
100
AcDbDictionary
280
     1
281
     1
  3
ACAD_DIMASSOC
360
FBF0
  0
DICTIONARY
  5
FBF2
330
FBF1
100
AcDbDictionary
280
     1
281
     1
  3
ACAD_DIMASSOC
360
FBF3
  0
DICTIONARY
  5
FBF5
330
FBF4
100
AcDbDictionary
280
     1
281
     1
  3
ACAD_DIMASSOC
360
FBF6
  0
DICTIONARY
  5
FC0F
330
FC0E
100
AcDbDictionary
280
     1
281
     1
  3
ACAD_DIMASSOC
360
FC10
  0
DICTIONARY
  5
19C1B
330
19C1A
100
AcDbDictionary
280
     1
281
     1
  3
ACAD_DIMASSOC
360
19C1C
  0
DICTIONARY
  5
19C1E
330
19C1D
100
AcDbDictionary
280
     1
281
     1
  3
ACAD_DIMASSOC
360
19C1F
  0
DICTIONARY
  5
19C21
330
19C20
100
AcDbDictionary
280
     1
281
     1
  3
ACAD_DIMASSOC
360
19C22
  0
DICTIONARY
  5
19C24
330
19C23
100
AcDbDictionary
280
     1
281
     1
  3
ACAD_DIMASSOC
360
19C25
  0
DICTIONARY
  5
19C27
330
19C26
100
AcDbDictionary
280
     1
281
     1
  3
ACAD_DIMASSOC
360
19C28
  0
DICTIONARY
  5
19C2A
330
19C29
100
AcDbDictionary
280
     1
281
     1
  3
ACAD_DIMASSOC
360
19C2B
  0
DICTIONARY
  5
19C2D
330
19C2C
100
AcDbDictionary
280
     1
281
     1
  3
ACAD_DIMASSOC
360
19C2E
  0
DICTIONARY
  5
19C30
330
19C2F
100
AcDbDictionary
280
     1
281
     1
  3
ACAD_DIMASSOC
360
19C31
  0
DICTIONARY
  5
1EC9C
330
1EC93
100
AcDbDictionary
280
     1
281
     1
  3
ACAD_DIMASSOC
360
1ECA2
  0
DICTIONARY
  5
6B
102
{ACAD_REACTORS
330
C
102
}
330
C
100
AcDbDictionary
281
     1
  0
DICTIONARY
  5
D
102
{ACAD_REACTORS
330
C
102
}
330
C
100
AcDbDictionary
281
     1
  0
DICTIONARY
  5
1A
102
{ACAD_REACTORS
330
C
102
}
330
C
100
AcDbDictionary
281
     1
  3
Model
350
22
  3
布局1
350
51
  3
布局2
350
56
  0
DICTIONARY
  5
6A
102
{ACAD_REACTORS
330
C
102
}
330
C
100
AcDbDictionary
281
     1
  0
DICTIONARY
  5
17
102
{ACAD_REACTORS
330
C
102
}
330
C
100
AcDbDictionary
281
     1
  3
Standard
350
18
  0
DICTIONARY
  5
19
102
{ACAD_REACTORS
330
C
102
}
330
C
100
AcDbDictionary
281
     1
  0
ACDBDICTIONARYWDFLT
  5
E
102
{ACAD_REACTORS
330
C
102
}
330
C
100
AcDbDictionary
281
     1
  3
Normal
350
F
100
AcDbDictionaryWithDefault
340
F
  0
DICTIONARY
  5
1170B
102
{ACAD_REACTORS
330
C
102
}
330
C
100
AcDbDictionary
281
     1
  3
Standard
350
1170C
  0
DICTIONARY
  5
1EDB9
102
{ACAD_REACTORS
330
C
102
}
330
C
100
AcDbDictionary
281
     1
  0
DICTIONARY
  5
5E
102
{ACAD_REACTORS
330
C
102
}
330
C
100
AcDbDictionary
281
     1
  3
CTABLESTYLE
350
117F8
  3
DIMASSOC
350
5F
  3
HIDETEXT
350
63
  3
PROJECTNAME
350
1EDB7
  0
DICTIONARY
  5
5D54
102
{ACAD_REACTORS
330
C
102
}
330
C
100
AcDbDictionary
281
     1
  3
ASEBlockHierarchyIndexRecord
350
5D56
1001
DCO15
1040
1555235781.625
  0
DICTIONARY
  5
18948
102
{ACAD_REACTORS
330
FBE5
102
}
330
FBE5
100
AcDbDictionary
281
     1
  0
DICTIONARY
  5
FBE6
102
{ACAD_REACTORS
330
FBE5
102
}
330
FBE5
100
AcDbDictionary
281
     1
  0
DICTIONARY
  5
18947
102
{ACAD_REACTORS
330
FBE5
102
}
330
FBE5
100
AcDbDictionary
281
     1
1001
ACAD
1000
<All
  0
SORTENTSTABLE
  5
123C7
102
{ACAD_REACTORS
330
123C6
102
}
330
123C6
100
AcDbSortentsTable
330
1F
331
1EC32
  5
1EBEA
331
1EC30
  5
1EBE5
331
1EBEC
  5
1EC48
331
1EBEA
  5
1EC46
331
1EC47
  5
1EBEB
331
1EBE8
  5
1EC32
331
1EC45
  5
1EBE8
331
1EBE2
  5
1EC30
331
1EC31
  5
1EBE9
331
1EBEB
  5
1EC47
331
1EC2F
  5
1EBE1
331
1EC48
  5
1EBE2
331
1EBE9
  5
1EC45
331
1EC46
  5
1EBEC
331
1EBE5
  5
1EC31
331
1EBE1
  5
1EC2F
  0
SORTENTSTABLE
  5
1900B
102
{ACAD_REACTORS
330
1900A
102
}
330
1900A
100
AcDbSortentsTable
330
18FB0
  0
SORTENTSTABLE
  5
1915C
102
{ACAD_REACTORS
330
1915B
102
}
330
1915B
100
AcDbSortentsTable
330
19154
  0
SORTENTSTABLE
  5
1941C
102
{ACAD_REACTORS
330
1941B
102
}
330
1941B
100
AcDbSortentsTable
330
193C1
  0
SORTENTSTABLE
  5
19957
102
{ACAD_REACTORS
330
19956
102
}
330
19956
100
AcDbSortentsTable
330
1994F
  0
SORTENTSTABLE
  5
19A55
102
{ACAD_REACTORS
330
19A54
102
}
330
19A54
100
AcDbSortentsTable
330
19A4C
  0
SORTENTSTABLE
  5
19C33
102
{ACAD_REACTORS
330
19C32
102
}
330
19C32
100
AcDbSortentsTable
330
19C0F
  0
SORTENTSTABLE
  5
1DD73
102
{ACAD_REACTORS
330
1DD72
102
}
330
1DD72
100
AcDbSortentsTable
330
1DD18
  0
SORTENTSTABLE
  5
1E15C
102
{ACAD_REACTORS
330
1E15B
102
}
330
1E15B
100
AcDbSortentsTable
330
1E101
  0
DIMASSOC
  5
FBEA
102
{ACAD_REACTORS
330
FBE9
102
}
330
FBE9
100
AcDbDimAssoc
330
FBE8
 90
        3
 70
     0
 71
     0
  1
AcDbOsnapPointRef
 72
     1
331
FC05
 73
     2
 91
        1
 40
1.0
 10
0.0
 20
0.0
 30
2.000000000000000E+50
 75
     0
  1
AcDbOsnapPointRef
 72
    13
331
FC05
 73
     2
 91
        1
 40
0.0
 10
0.0
 20
0.0
 30
2.000000000000000E+50
 75
     0
  0
DIMASSOC
  5
FBED
102
{ACAD_REACTORS
330
FBEC
102
}
330
FBEC
100
AcDbDimAssoc
330
FBEB
 90
        3
 70
     0
 71
     0
  1
AcDbOsnapPointRef
 72
     1
331
FC06
 73
     2
 91
        1
 40
1.0
 10
0.0
 20
0.0
 30
2.000000000000000E+50
 75
     0
  1
AcDbOsnapPointRef
 72
     1
331
FC06
 73
     2
 91
        2
 40
1.0
 10
0.0
 20
0.0
 30
2.000000000000000E+50
 75
     0
  0
DIMASSOC
  5
FBF0
102
{ACAD_REACTORS
330
FBEF
102
}
330
FBEF
100
AcDbDimAssoc
330
FBEE
 90
        3
 70
     0
 71
     0
  1
AcDbOsnapPointRef
 72
     1
331
FC09
 73
     2
 91
        0
 40
1.0
 10
0.0
 20
0.0
 30
2.000000000000000E+50
 75
     0
  1
AcDbOsnapPointRef
 72
     1
331
FC06
 73
     2
 91
        2
 40
1.0
 10
0.0
 20
0.0
 30
2.000000000000000E+50
 75
     0
  0
DIMASSOC
  5
FBF3
102
{ACAD_REACTORS
330
FBF2
102
}
330
FBF2
100
AcDbDimAssoc
330
FBF1
 90
        3
 70
     0
 71
     0
  1
AcDbOsnapPointRef
 72
    13
331
FC05
 73
     2
 91
        2
 40
0.0
 10
0.0
 20
0.0
 30
2.000000000000000E+50
 75
     0
  1
AcDbOsnapPointRef
 72
    13
331
FC05
 73
     2
 91
        1
 40
0.0
 10
0.0
 20
0.0
 30
2.000000000000000E+50
 75
     0
  0
DIMASSOC
  5
FBF6
102
{ACAD_REACTORS
330
FBF5
102
}
330
FBF5
100
AcDbDimAssoc
330
FBF4
 90
        3
 70
     0
 71
     0
  1
AcDbOsnapPointRef
 72
     1
331
FBFB
 73
     2
 91
        0
 40
1.0
 10
0.0
 20
0.0
 30
2.000000000000000E+50
 75
     0
  1
AcDbOsnapPointRef
 72
     1
331
FC00
 73
     2
 91
        0
 40
1.0
 10
0.0
 20
0.0
 30
2.000000000000000E+50
 75
     0
  0
DIMASSOC
  5
FC10
102
{ACAD_REACTORS
330
FC0F
102
}
330
FC0F
100
AcDbDimAssoc
330
FC0E
 90
        3
 70
     0
 71
     0
  1
AcDbOsnapPointRef
 72
     3
331
FC0D
 73
     2
 91
        1
 40
0.0
 10
0.0
 20
0.0
 30
0.0
 75
     0
  1
AcDbOsnapPointRef
 72
     2
331
FC06
 73
     2
 91
        4
 40
0.5
 10
0.0
 20
0.0
 30
0.0
 75
     0
  0
DIMASSOC
  5
19C1C
102
{ACAD_REACTORS
330
19C1B
102
}
330
19C1B
100
AcDbDimAssoc
330
19C1A
 90
        3
 70
     0
 71
     0
  1
AcDbOsnapPointRef
 72
     1
331
19C10
 73
     2
 91
        6
 40
3.141592653589793
 10
0.0
 20
0.0
 30
2.000000000000000E+50
 75
     0
  1
AcDbOsnapPointRef
 72
     1
331
19C10
 73
     2
 91
        3
 40
0.9999999999999998
 10
0.0
 20
0.0
 30
2.000000000000000E+50
 75
     0
  0
DIMASSOC
  5
19C1F
102
{ACAD_REACTORS
330
19C1E
102
}
330
19C1E
100
AcDbDimAssoc
330
19C1D
 90
        1
 70
     0
 71
     0
  1
AcDbOsnapPointRef
 72
     1
331
19C10
 73
     2
 91
        3
 40
0.9999999999999998
 10
0.0
 20
0.0
 30
2.000000000000000E+50
 75
     0
  0
DIMASSOC
  5
19C22
102
{ACAD_REACTORS
330
19C21
102
}
330
19C21
100
AcDbDimAssoc
330
19C20
 90
        3
 70
     0
 71
     0
  1
AcDbOsnapPointRef
 72
     6
331
19C10
 73
     2
 91
        1
 40
1.0
 10
0.0
 20
0.0
 30
0.0
332
19C10
 74
     2
 92
        2
 75
     0
  1
AcDbOsnapPointRef
 72
     1
331
19C10
 73
     2
 91
        4
 40
4.712388980384689
 10
0.0
 20
0.0
 30
2.000000000000000E+50
 75
     0
  0
DIMASSOC
  5
19C25
102
{ACAD_REACTORS
330
19C24
102
}
330
19C24
100
AcDbDimAssoc
330
19C23
 90
        1
 70
     0
 71
     0
  1
AcDbOsnapPointRef
 72
    13
331
19C10
 73
     2
 91
        2
 40
1.570796326794896
 10
0.0
 20
0.0
 30
2.000000000000000E+50
 75
     0
  0
DIMASSOC
  5
19C28
102
{ACAD_REACTORS
330
19C27
102
}
330
19C27
100
AcDbDimAssoc
330
19C26
 90
        3
 70
     0
 71
     0
  1
AcDbOsnapPointRef
 72
    13
331
19C13
 73
     2
 91
        0
 40
0.0
 10
0.0
 20
0.0
 30
2.000000000000000E+50
 75
     0
  1
AcDbOsnapPointRef
 72
     8
331
19C10
 73
     2
 91
        1
 40
0.4062055234905017
 10
0.0
 20
0.0
 30
0.0
 75
     1
  1
AcDbOsnapPointRef
 72
    13
331
19C13
 73
     2
 91
        0
 40
0.0
 10
0.0
 20
0.0
 30
2.000000000000000E+50
 75
     0
  0
DIMASSOC
  5
19C2B
102
{ACAD_REACTORS
330
19C2A
102
}
330
19C2A
100
AcDbDimAssoc
330
19C29
 90
        2
 70
     0
 71
     0
  1
AcDbOsnapPointRef
 72
     3
331
19C10
 73
     2
 91
        6
 40
0.0
 10
0.0
 20
0.0
 30
0.0
 75
     0
  0
DIMASSOC
  5
19C2E
102
{ACAD_REACTORS
330
19C2D
102
}
330
19C2D
100
AcDbDimAssoc
330
19C2C
 90
        2
 70
     0
 71
     0
  1
AcDbOsnapPointRef
 72
     3
331
19C11
 73
     2
 91
        1
 40
0.0
 10
0.0
 20
0.0
 30
0.0
 75
     0
  0
DIMASSOC
  5
19C31
102
{ACAD_REACTORS
330
19C30
102
}
330
19C30
100
AcDbDimAssoc
330
19C2F
 90
        2
 70
     0
 71
     0
  1
AcDbOsnapPointRef
 72
     3
331
19C14
 73
     2
 91
        0
 40
0.0
 10
0.0
 20
0.0
 30
0.0
 75
     0
  0
DIMASSOC
  5
1ECA2
102
{ACAD_REACTORS
330
1EC9C
102
}
330
1EC9C
100
AcDbDimAssoc
330
1EC93
 90
        2
 70
     0
 71
     0
  1
AcDbOsnapPointRef
 72
     3
331
1EC48
 73
     2
 91
        0
 40
0.0
 10
0.0
 20
0.0
 30
0.0
 75
     0
  0
LAYOUT
  5
22
102
{ACAD_XDICTIONARY
360
1EDBA
102
}
102
{ACAD_REACTORS
330
1A
102
}
330
1A
100
AcDbPlotSettings
  1

  2
pdfFactory Pro
  4
User55
  6

 40
7.143749713897705
 41
7.143725872039794
 42
7.14373779296875
 43
7.14373779296875
 44
209.9733276367187
 45
297.0106506347656
 46
0.0
 47
6.219999999999999
 48
-5548.146352639129
 49
5477.187755430821
140
-4440.426352639131
141
7007.187755430816
142
1.0
143
5.660705952280153
 70
 11956
 72
     1
 73
     0
 74
     4
  7
monochrome.ctb
 75
     0
147
0.1766564114847188
148
5548.146352639129
149
-5477.187755430821
100
AcDbLayout
  1
Model
 70
     1
 71
     0
 10
0.0
 20
0.0
 11
12.0
 21
9.0
 12
0.0
 22
0.0
 32
0.0
 14
0.0
 24
0.0
 34
0.0
 15
0.0
 25
0.0
 35
0.0
146
0.0
 13
0.0
 23
0.0
 33
0.0
 16
1.0
 26
0.0
 36
0.0
 17
0.0
 27
1.0
 37
0.0
 76
     0
330
1F
  0
LAYOUT
  5
51
102
{ACAD_XDICTIONARY
360
1EDBC
102
}
102
{ACAD_REACTORS
330
1A
102
}
330
1A
100
AcDbPlotSettings
  1

  2
None
  4

  6

 40
0.0
 41
0.0
 42
0.0
 43
0.0
 44
0.0
 45
0.0
 46
0.0
 47
0.0
 48
0.0
 49
0.0
140
0.0
141
0.0
142
1.0
143
1.0
 70
   688
 72
     0
 73
     0
 74
     5
  7

 75
    16
147
1.0
148
0.0
149
0.0
100
AcDbLayout
  1
布局1
 70
     1
 71
     1
 10
0.0
 20
0.0
 11
12.0
 21
9.0
 12
0.0
 22
0.0
 32
0.0
 14
0.0
 24
0.0
 34
0.0
 15
0.0
 25
0.0
 35
0.0
146
0.0
 13
0.0
 23
0.0
 33
0.0
 16
1.0
 26
0.0
 36
0.0
 17
0.0
 27
1.0
 37
0.0
 76
     0
330
50
  0
LAYOUT
  5
56
102
{ACAD_XDICTIONARY
360
1EDBE
102
}
102
{ACAD_REACTORS
330
1A
102
}
330
1A
100
AcDbPlotSettings
  1

  2
None
  4

  6

 40
0.0
 41
0.0
 42
0.0
 43
0.0
 44
0.0
 45
0.0
 46
0.0
 47
0.0
 48
0.0
 49
0.0
140
0.0
141
0.0
142
1.0
143
1.0
 70
   688
 72
     0
 73
     0
 74
     5
  7

 75
    16
147
1.0
148
0.0
149
0.0
100
AcDbLayout
  1
布局2
 70
     1
 71
     2
 10
0.0
 20
0.0
 11
12.0
 21
9.0
 12
0.0
 22
0.0
 32
0.0
 14
0.0
 24
0.0
 34
0.0
 15
0.0
 25
0.0
 35
0.0
146
0.0
 13
0.0
 23
0.0
 33
0.0
 16
1.0
 26
0.0
 36
0.0
 17
0.0
 27
1.0
 37
0.0
 76
     0
330
55
  0
MLINESTYLE
  5
18
102
{ACAD_REACTORS
330
17
102
}
330
17
100
AcDbMlineStyle
  2
STANDARD
 70
     0
  3

 62
   256
 51
90.0
 52
90.0
 71
     2
 49
0.5
 62
   256
  6
BYLAYER
 49
-0.5
 62
   256
  6
BYLAYER
  0
ACDBPLACEHOLDER
  5
F
102
{ACAD_REACTORS
330
E
102
}
330
E
  0
TABLESTYLE
  5
1170C
102
{ACAD_REACTORS
330
1170B
102
}
330
1170B
100
AcDbTableStyle
  3
Standard
 70
     0
 71
     0
 40
1.5
 41
1.5
280
     0
281
     0
  7
Standard
140
4.5
170
     2
 62
     0
 63
     7
283
     0
274
    -2
284
     1
 64
     0
275
    -2
285
     1
 65
     0
276
    -2
286
     1
 66
     0
277
    -2
287
     1
 67
     0
278
    -2
288
     1
 68
     0
279
    -2
289
     1
 69
     0
  7
Standard
140
6.0
170
     5
 62
     0
 63
     7
283
     0
274
    -2
284
     1
 64
     0
275
    -2
285
     1
 65
     0
276
    -2
286
     1
 66
     0
277
    -2
287
     1
 67
     0
278
    -2
288
     1
 68
     0
279
    -2
289
     1
 69
     0
  7
Standard
140
4.5
170
     5
 62
     0
 63
     7
283
     0
274
    -2
284
     1
 64
     0
275
    -2
285
     1
 65
     0
276
    -2
286
     1
 66
     0
277
    -2
287
     1
 67
     0
278
    -2
288
     1
 68
     0
279
    -2
289
     1
 69
     0
  0
DICTIONARYVAR
  5
117F8
102
{ACAD_REACTORS
330
5E
102
}
330
5E
100
DictionaryVariables
280
     0
  1
STANDARD
  0
DICTIONARYVAR
  5
5F
102
{ACAD_REACTORS
330
5E
102
}
330
5E
100
DictionaryVariables
280
     0
  1
2
  0
DICTIONARYVAR
  5
63
102
{ACAD_REACTORS
330
5E
102
}
330
5E
100
DictionaryVariables
280
     0
  1
1
  0
DICTIONARYVAR
  5
1EDB7
102
{ACAD_REACTORS
330
5E
102
}
330
5E
100
DictionaryVariables
280
     0
  1

  0
XRECORD
  5
5D56
102
{ACAD_REACTORS
330
5D54
102
}
330
5D54
100
AcDbXrecord
280
     1
  0
DICTIONARY
  5
1EDBA
330
22
100
AcDbDictionary
280
     1
281
     1
  3
ACAD_XREC_ROUNDTRIP
360
1EDBB
  0
DICTIONARY
  5
1EDBC
330
51
100
AcDbDictionary
280
     1
281
     1
  3
ACAD_XREC_ROUNDTRIP
360
1EDBD
  0
DICTIONARY
  5
1EDBE
330
56
100
AcDbDictionary
280
     1
281
     1
  3
ACAD_XREC_ROUNDTRIP
360
1EDBF
  0
XRECORD
  5
1EDBB
102
{ACAD_REACTORS
330
1EDBA
102
}
330
1EDBA
100
AcDbXrecord
280
     1
102
SHADEPLOT
 70
     1
102
SHADEPLOTRESLEVEL
 70
     2
102
SHADEPLOTCUSTOMDPI
 70
   300
  0
XRECORD
  5
1EDBD
102
{ACAD_REACTORS
330
1EDBC
102
}
330
1EDBC
100
AcDbXrecord
280
     1
102
SHADEPLOT
 70
     0
102
SHADEPLOTRESLEVEL
 70
     2
102
SHADEPLOTCUSTOMDPI
 70
   300
  0
XRECORD
  5
1EDBF
102
{ACAD_REACTORS
330
1EDBE
102
}
330
1EDBE
100
AcDbXrecord
280
     1
102
SHADEPLOT
 70
     0
102
SHADEPLOTRESLEVEL
 70
     2
102
SHADEPLOTCUSTOMDPI
 70
   300
  0
ENDSEC
  0
EOF
